<?xml version="1.0" standalone="no"?>
<!DOCTYPE svg PUBLIC "-//W3C//DTD SVG 1.1//EN" "http://www.w3.org/Graphics/SVG/1.1/DTD/svg11.dtd" >
<svg xmlns="http://www.w3.org/2000/svg">
<metadata>
This is a custom SVG webfont generated by Font Squirrel.
Copyright   : Copyright c Magenta Ltd 2004
Foundry     : Magenta Ltd
Foundry URL : httpwwwmagentagr
</metadata>
<defs>
<font id="MgOpenModataBoldOblique" horiz-adv-x="1531" >
<font-face units-per-em="2048" ascent="1638" descent="-410" />
<missing-glyph horiz-adv-x="552" />
<glyph unicode=" "  horiz-adv-x="552" />
<glyph unicode="&#x09;" horiz-adv-x="552" />
<glyph unicode="&#xa0;" horiz-adv-x="552" />
<glyph unicode="!" horiz-adv-x="575" d="M37 150q0 88 63 155q72 76 183 76q145 0 145 -145q0 -88 -61 -158q-66 -78 -166 -78q-80 0 -122 43.5t-42 106.5zM154 580q0 27 6 53l143 672q20 102 86 161q57 53 125 54q55 0 92 -39t37 -111q0 -31 -8 -65l-143 -672q-18 -90 -79 -140.5t-128 -50.5q-55 0 -93 36 t-38 102z" />
<glyph unicode="&#x22;" horiz-adv-x="890" d="M209 965q0 16 4 32l80 385q14 66 63.5 102t106.5 36q117 0 117 -105q0 -16 -5 -33l-81 -385q-12 -66 -66 -104q-45 -33 -102 -33q-117 1 -117 105zM627 965q0 16 4 32l82 385q14 66 63 102t105 36q115 0 114 -105q0 -14 -4 -33l-80 -385q-14 -66 -63 -101.5t-107 -35.5 q-114 1 -114 105z" />
<glyph unicode="#" horiz-adv-x="1288" d="M109 492q0 16 4 34q16 82 96 103q31 8 141 8l84 231q-92 0 -117 6q-51 14 -51 70q0 16 4 39q18 80 103 98q27 6 141 6l117 332q55 150 162 150q74 0 73 -82q0 -31 -14 -68l-121 -332h182l121 332q53 150 154 150q74 0 74 -86q0 -29 -13 -64l-121 -332q90 0 119 -8 q59 -16 60 -73q0 -16 -7 -37q-14 -76 -106 -95q-31 -6 -143 -6l-84 -231q88 0 112 -6q55 -14 56 -70q0 -14 -5 -33q-16 -84 -98 -102q-27 -8 -143 -8l-121 -332q-37 -100 -150 -100q-78 0 -77 57q0 14 6 29l125 346h-187l-120 -332q-39 -106 -152 -106q-76 0 -76 59 q0 16 8 33l125 346q-88 0 -110 6q-51 15 -51 68zM571 637h181l84 231h-185z" />
<glyph unicode="$" horiz-adv-x="1290" d="M45 193q0 78 62.5 143t146.5 65q35 0 130 -42t175 -42l66 306q-197 47 -301 161q-94 104 -95 242q0 190 162 346q172 166 434 193q2 16 15 71q18 88 88 88q49 0 49 -57q0 -10 -4 -20l-15 -82q106 0 201 -45q115 -55 115 -152q0 -76 -51 -141q-55 -72 -127 -72 q-23 0 -92.5 36t-116.5 40l-62 -295q375 -113 375 -408q0 -205 -176 -379t-403 -178q-6 -23 -19.5 -89t-79.5 -66q-68 0 -53 71q4 18 16 84q-291 0 -399 117q-41 44 -41 105zM580 1081q0 -86 118 -112l56 262q-82 -16 -128 -58.5t-46 -91.5zM694 317q57 0 94 52 q33 45 33 104q0 92 -69 115z" />
<glyph unicode="%" horiz-adv-x="1611" d="M190 49q0 59 62 137l1024 1282q61 76 135 76q43 0 71.5 -26.5t28.5 -69.5q0 -53 -45 -111l-1048 -1314q-4905F2AE0A12" />
<glyph unicode="&#x26;" horiz-adv-x="1624" d="M80 336q0 143 102 280q115 152 340 269q-70 102 -69 219q0 184 156.5 323.5t375.5 139.5q168 0 264 -92q88 -86 88 -222q0 -131 -82 -252q-92 -133 -254 -215l154 -231q55 45 180 174q57 53 119 53q49 0 82 -33.5t33 -82.5q0 -68 -60 -129q-68 -74 -202 -203 q25 -39 86 -148q23 -37 22 -80q0 -68 -51 -120t-115 -52q-70 0 -119 66q-39 45 -102 137q-242 -201 -493 -200q-195 0 -325 115.5t-130 283.5zM432 395q0 -68 57.5 -111.5t139.5 -43.5q135 0 248 112l-218 301q-227 -121 -227 -258zM793 1182q0 -115 69 -197q66 37 116 113 t50 137q0 84 -96 84q-139 0 -139 -137z" />
<glyph unicode="'" horiz-adv-x="739" d="M199 920q0 70 63 149l248 313q109 137 223 138q111 0 111 -107q0 -68 -62 -145l-293 -369q-78 -96 -170 -96q-51 0 -85.5 33t-34.5 84z" />
<glyph unicode="(" horiz-adv-x="641" d="M61 47q0 344 119 762q121 430 283 627q86 106 178 106q74 0 94 -67q23 -72 -39 -172q-319 -520 -319 -1084q0 -172 26 -379q10 -86 -42 -148.5t-121 -62.5q-82 0 -125 92q-54 111 -54 326z" />
<glyph unicode=")" horiz-adv-x="641" d="M-51 -262q0 -49 28.5 -79t73.5 -30q82 0 164 92q172 190 301 637q123 428 123 781q0 190 -42 296.5t-134 106.5q-63 0 -112.5 -54t-49.5 -136q0 -25 4 -49q31 -162 31 -322q0 -272 -96 -561q-84 -254 -263 -580q-28 -53 -28 -102z" />
<glyph unicode="*" d="M610 948q0 57 66 107q57 33 115 67q-45 18 -89 35q-43 25 -43 70q0 55 42 100t98 45q51 0 141 -86q2 49 12 144q18 86 142 86q37 0 64.5 -19.5t27.5 -52.5q0 -12 -4 -25l-41 -133q137 86 176 86t63.5 -28.5t24.5 -69.5q0 -70 -59 -107q-4 0 -121 -45q39 -33 78 -63 q45 -45 34 -92q-8 -43 -42.5 -72t-75.5 -29q-43 0 -84 29l-66 57l-14 -131q-4 -45 -46 -67.5t-87 -22.5q-98 0 -99 68q0 10 2 22l43 131q-129 -86 -174 -86q-84 0 -84 82z" />
<glyph unicode="+" d="M287 563q0 70 49 130.5t123 60.5h313l68 317q14 66 69 103q49 35 113 34q125 0 125 -106q0 -14 -2 -31l-68 -317h318q109 0 108 -113q0 -70 -49 -129t-123 -59h-319l-68 -316q-12 -66 -64.5 -101.5t-115.5 -35.5q-53 0 -89 27.5t-36 78.5q0 14 2 31l68 316h-314 q-108 -1 -108 110z" />
<glyph unicode="," horiz-adv-x="653" d="M-115 -213q0 63 56 133l249 318q82 104 191 104q55 0 92 -30.5t37 -80.5q0 -53 -45 -112l-293 -363q-70 -86 -160 -86q-53 0 -90 33t-37 84z" />
<glyph unicode="-" horiz-adv-x="989" d="M143 563q0 70 49.5 130.5t124.5 60.5h517q111 0 110 -115q0 -70 -47 -125q-51 -61 -127 -61h-518q-109 -1 -109 110z" />
<glyph unicode="." horiz-adv-x="575" d="M37 152q0 86 63 153q72 76 183 76q145 0 145 -145q0 -88 -61 -158q-66 -78 -166 -78q-80 0 -122 43t-42 109z" />
<glyph unicode="../../../../default.htm" d="M295 33q0 66 65 153l936 1266q86 117 179 117q86 0 86 -86q0 -59 -54 -129l-983 -1331q-55 -78 -137 -78q-92 0 -92 88z" />
<glyph unicode="0" d="M270 543q0 373 230 684q252 340 616 340q229 0 354 -176q115 -160 115 -414q0 -375 -215 -670q-240 -332 -608 -332q-244 0 -375 168q-117 152 -117 400zM629 600q0 -131 49 -209q53 -84 158 -84q152 0 272 217q113 203 113 420q0 276 -197 277q-164 0 -285 -211 q-110 -193 -110 -410z" />
<glyph unicode="1" d="M739 1325q0 74 50.5 134.5t130.5 60.5h362q35 0 68.5 -41t27.5 -74l-260 -1219q-20 -100 -82.5 -155.5t-132.5 -55.5q-55 0 -92 37t-37 105q0 27 6 55l219 1030l-147 2q-113 2 -113 121z" />
<glyph unicode="2" d="M272 109q0 16 2 34q25 109 175 226q193 150 393 356q279 285 278 408q0 43 -31.5 70.5t-78.5 27.5q-156 0 -242 -232q-39 -106 -145 -106q-57 0 -100.5 38t-43.5 99q0 33 13 68q92 231 268 358q156 111 334 111q168 0 283.5 -100.5t115.5 -270.5q0 -53 -12 -109 q-31 -145 -144 -292q-86 -113 -239 -252l-262 -226h397q92 0 92 -118q0 -76 -41 -133q-47 -66 -119 -66h-782q-111 0 -111 109z" />
<glyph unicode="3" d="M307 322q0 90 63.5 160.5t133.5 70.5q68 0 96 -70q37 -88 76 -123q53 -47 151 -47q90 0 149.5 61.5t59.5 131.5q0 106 -125 106q-166 0 -166 140q0 82 67 152.5t167 70.5q59 0 115.5 41t54.5 94q-10 145 -129 145q-70 0 -162 -51q-84 -49 -145 -119q-53 -61 -113 -61 q-43 0 -72.5 35t-29.5 88q0 96 92 194q123 129 236.5 177.5t293.5 48.5q172 0 269 -99q86 -88 86 -229q0 -117 -62 -229q-63 -121 -178 -199q168 -106 168 -289q0 -201 -186 -372q-193 -178 -443 -179q-154 0 -274 68q-133 76 -183 213q-10 33 -10 70z" />
<glyph unicode="4" d="M197 453q0 82 49 135l645 735q176 199 354 199q88 0 141.5 -53.5t53.5 -143.5q0 -33 -8 -70l-127 -602h88q152 0 151 -129q0 -72 -55 -127q-59 -61 -152 -61q-70 -2 -100 -2l-35 -160q-16 -82 -80 -131q-55 -43 -123 -43q-57 0 -95 34t-38 95q0 23 4 49l35 156h-600 q-108 0 -108 119zM655 653h318l104 488z" />
<glyph unicode="5" d="M307 217q0 82 55.5 148.5t131.5 66.5q47 0 94 -31q78 -53 82 -55q57 -31 131 -31q115 0 184 91q61 80 62 186q0 78 -35 129q-41 53 -111 53q-45 0 -107.5 -40t-131.5 -40q-53 0 -91 21q-45 23 -45 65q0 12 6 29l187 577q43 133 196 134h533q121 0 121 -123 q0 -72 -49 -129q-55 -66 -140 -66h-417l-52 -166q94 27 166 27q166 0 258 -117q84 -104 84 -272q0 -260 -178 -465q-203 -233 -522 -234q-100 0 -197 29q-117 33 -172 96q-43 47 -43 117z" />
<glyph unicode="6" d="M449 389q0 80 18 166q39 184 268 461q184 219 408 407q111 92 207 93q57 0 93 -34t36 -85q0 -76 -74 -148l-318 -297q41 4 80 4q178 0 281 -110q92 -102 92 -264q0 -231 -176 -408q-201 -201 -530 -201q-193 0 -295 121q-90 111 -90 295zM803 446q0 -63 34.5 -105 t100.5 -42q113 0 186 76q68 70 68 157q0 61 -41 102.5t-121 41.5q-102 0 -164.5 -72t-62.5 -158z" />
<glyph unicode="7" d="M444 80q-29 88 58 211l631 911h-486q-113 0 -112 111q0 74 49 140.5t114 66.5h748q53 0 89 -46.5t36 -103.5q0 -39 -21 -67l-786 -1178q-84 -125 -199 -125q-92 0 -121 80z" />
<glyph unicode="8" d="M309 510q57 213 269 326q-86 92 -86 215q0 190 186 353t424 163q186 0 299 -113q102 -104 102 -258q0 -21309EC845A2B" />
<glyph unicode="9" d="M322 911q0 246 163 439q186 217 486 217q207 0 334 -99q135 -104 135 -288q0 -53 -13 -113q-102 -483 -720 -983q-109 -86 -220 -86q-57 0 -95 27.5t-38 72.5q0 78 105 162q88 70 178 139q92 78 143 172q-80 -23 -147 -22q-150 0 -234 106q-77 98 -77 256zM674 997 q0 -68 43 -114.5t119 -46.5q98 0 168 79q66 74 65 164q0 137 -151 138q-115 0 -179.5 -67t-64.5 -153z" />
<glyph unicode=":" horiz-adv-x="575" d="M37 154q0 88 65 155q72 76 183 76q145 0 145 -145q0 -88 -59 -158q-68 -78 -168 -78q-82 0 -124 43.5t-42 106.5zM176 805q0 86 67.5 158.5t178.5 72.5q145 0 145 -147q0 -88 -59 -158q-66 -78 -168 -78q-80 0 -122 43t-42 109z" />
<glyph unicode=";" horiz-adv-x="653" d="M-115 -219q0 66 56 139l276 365q88 115 189 114q51 0 84.5 -31.5t33.5 -78.5q0 -45 -30 -88l-322 -445q-6802B535FADD" />
<glyph unicode="&#x3c;" d="M311 588q0 115 201 198l825 353q57 25 109 24q55 0 88 -30.5t33 -77.5q0 -115 -148 -170l-694 -262l578 -289q88 -43 88 -123q0 -53 -43 -94t-109 -41q-51 0 -106 26l-707 351q-115 55 -115 135z" />
<glyph unicode="=" d="M244 336q0 68 54 124t140 56h875q135 0 135 -121q0 -68 -47 -119q-53 -57 -133 -57h-885q-139 0 -139 117zM346 834q0 70 53.5 127t135.5 57h886q133 0 133 -123q0 -68 -47 -119q-53 -55 -133 -55h-903q-125 0 -125 113z" />
<glyph unicode="&#x3e;" d="M205 139q0 117 153 178l711 287q-172 88 -559 264q-113 53 -113 144q0 57 49.5 100t122.5 43q61 0 125 -33l709 -368q88 -45 88 -125q0 -113 -152 -176l-917 -383q-61 -25 -109 -25q-108 0 -108 94z" />
<glyph unicode="?" horiz-adv-x="1210" d="M250 1149q0 23 4 47q35 158 227 272q172 100 336 101q225 0 342 -111q102 -98 103 -258q0 -199 -138 -369q-143 -178 -331 -178q-6 -29 -21 -90q-29 -127 -172 -127q-66 0 -113 34t-47 91q0 12 2 27l47 215q14 70 101 102q80 20 165 44t99 71t14 84q0 102 -114 102 q-104 0 -194.5 -92t-186.5 -92q-123 0 -123 127zM317 147q0 88 66 156q70 76 180 76q74 0 113 -42t39 -108q0 -86 -62 -155q-68 -76 -170 -76q-82 0 -124 43t-42 106z" />
<glyph unicode="@" horiz-adv-x="1740" d="M141 567q0 96 23 203q68 319 359.5 559t611.5 240q313 0 477 -158q143 -137 143 -362q0 -276 -192 -508q-203 -244 -480 -244q-117 0 -100 104q-141 -84 -262 -84q-106 0 -169 67t-63 187q0 53 13 115q43 203 207 348q158 141 317 142q143 0 213 -125q18 45 59 79.5 t86 34.5q61 0 62 -67q0 -25 -10 -68q-16 -84 -80 -237q-68 -166 -88 -238q14 -4 30 -4q98 0 179.5 132t81.5 288q0 164 -99 264q-115 119 -344 119q-291 0 -491 -201q-176 -176 -236 -440q-12 -57 -12 -109q0 -193 151 -309q141 -113 353 -113q127 0 340 82q37 14 65 15 q72 0 72 -68q0 -76 -90 -113q-113 -43 -252 -76.5t-203 -33.5q-315 0 -493.5 152.5t-178.5 426.5zM745 647q0 -117 101 -117q94 0 189 88.5t95 182.5q0 57 -43 92t-104 35q-76 0 -137 -49q-72 -57 -92 -158q-9 -41 -9 -74z" />
<glyph unicode="A" horiz-adv-x="1472" d="M25 100q0 37 22 80l649 1143q113 197 283 197q166 0 201 -197l198 -1133q2 -16 2 -32q0 -74 -54 -117t-124 -43q-119 0 -141 100q-20 70 -47 203h-568q-29 -61 -112 -197q-63 -111 -178 -110q-55 0 -93 29.5t-38 76.5zM612 623h369l-76 501z" />
<glyph unicode="B" horiz-adv-x="1288" d="M23 94q0 10 2 21l262 1239q12 55 64 110.5t106 55.5h516q123 0 198.5 -91.5t75.5 -218.5q0 -238 -235 -366q225 -33 225 -271q0 -199 -145 -380q-156 -193 -357 -193h-602q-45 0 -77.5 26.5t-32.5 67.5zM414 301h250q98 0 161 59q57 55 58 123q0 121 -152 121h-254z M545 918h217q49 0 83 55t34 117q0 98 -76 98h-201z" />
<glyph unicode="C" horiz-adv-x="1355" d="M139 555q0 369 250 676q272 336 668 336q160 0 229 -17q82 -18 211 -90q70 -41 70 -108q0 -70 -64.5 -131.5t-140.5 -61.5q-20 0 -37 6q-8 2 -160 56q-62 23 -159 22h-17q-225 -8 -368 -248q-101 -170 -101 -337q0 -54 10 -107q45 -238 279 -238q74 0 145 17 q96 25 193 47q18 6 37 6q61 0 102 -45t41 -105q0 -109 -125 -157q-152 -57 -244 -78q-104 -23 -251 -23q-283 0 -433 172q-135 156 -135 408z" />
<glyph unicode="D" horiz-adv-x="1413" d="M25 109q0 10 4 22l258 1223q12 55 64 110.5t106 55.5h467q258 0 395 -170q125 -152 125 -400q0 -350 -219 -637q-240 -313 -592 -313h-467q-55 0 -98 30t-43 79zM416 313h217q193 0 323 205q117 184 117 400q0 121 -47 195.5t-139 74.5h-285z" />
<glyph unicode="E" horiz-adv-x="989" d="M25 115l266 1255q14 66 64.5 108t115.5 42h553q123 0 123 -136q0 -74 -45 -135t-117 -61h-399l-64 -293h369q102 0 102 -117q0 -74 -44 -135t-111 -61h-381l-58 -269h369q133 0 133 -125q0 -70 -45 -129t-106 -59h-633q-37 0 -69 38q-25 30 -25 61q0 8 2 16z" />
<glyph unicode="F" horiz-adv-x="978" d="M31 125q0 18 4 41l256 1204q33 150 164 150h583q123 0 123 -131q0 -70 -43 -125q-45 -61 -114 -62h-418l-51 -244h368q106 0 107 -116q0 -74 -47 -131q-49 -66 -127 -66h-369l-102 -479q-16 -78 -78 -123q-53 -41 -121 -41q-57 0 -96 32t-39 91z" />
<glyph unicode="G" horiz-adv-x="1562" d="M143 565q0 367 248 670q272 332 666 332q375 0 516 -181q41 -51 41 -110q0 -78 -61.5 -138.5t-131.5 -60.5q-55 0 -92 45q-92 119 -330 119q-205 0 -358 -207q-141 -193 -141 -413q0 -141 71 -226q78 -96 230 -96q334 0 395 289h-281q-104 0 -104 117q0 74 47 135t123 61 h496q109 0 108 -115q0 -27 -6 -59q-160 -752 -848 -752q-293 0 -448 177q-140 157 -140 413z" />
<glyph unicode="H" horiz-adv-x="1478" d="M31 121q0 18 4 39l254 1196q16 78 78 125q57 39 125 39q57 0 96 -31t39 -84q0 -16 -2 -35l-95 -434h654l90 420q16 76 71.5 119t120.5 43q57 0 97.5 -36t40.5 -106q0 -25 -7 -53l-243 -1147q-18 -84 -76.5 -130t-126.5 -46q-57 0 -96 33t-39 90q0 18 4 37l98 463h-653 l-98 -463q-16 -76 -76 -119t-127 -43q-57 0 -95 33t-38 90z" />
<glyph unicode="I" horiz-adv-x="493" d="M33 131q0 23 4 45l248 1163q18 84 82 136q57 43 125 43q57 0 94 -32t37 -89q0 -20 -5 -41l-249 -1180q-18 -82 -78 -128t-125 -46q-57 0 -95 34t-38 95z" />
<glyph unicode="J" horiz-adv-x="1003" d="M61 240q0 70 48.5 121t117.5 51q43 0 86 -23q4 -2 76 -55q49 -37 82 -37q76 0 117 186l180 856q18 84 84 134q59 45 131 45q61 0 102 -35t41 -99q0 -20 -6 -45l-196 -921q-45 -219 -191 -338q-129 -106 -297 -107q-166 0 -286 101q-89 72 -89 166z" />
<glyph unicode="K" horiz-adv-x="1372" d="M31 125q0 18 4 37l254 1194q16 78 78 123q55 41 120 41q57 0 96.5 -32t39.5 -91q0 -20 -5 -41l-90 -420l629 518q76 61 156 62q63 0 106 -40t43 -98q0 -94 -106 -174l-498 -368l379 -508q49 -68 49 -131q0 -82 -70.5 -138.5t-154.5 -56.5q-88 0 -133 64l-439 604 l-108 -508q-16 -76 -76.5 -119t-130.5 -43q-61 0 -102 33t-41 92z" />
<glyph unicode="L" horiz-adv-x="976" d="M27 111q0 10 2 20l258 1219q16 80 82 127q57 43 129 43q61 0 102 -34t41 -95q0 -18 -4 -39l-217 -1022h3990189A18AE5" />
<glyph unicode="M" horiz-adv-x="1923" d="M31 129q0 29 12 59l430 1117q39 100 117 157.5t160 57.5q160 0 182 -181l88 -686l395 686q104 178 271 179q80 0 126 -52q49 -55 50 -147v-14l-52 -1121q-4 -84 -65 -139q-53 -49 -125 -49q-61 0 -102 42t-39 122l26 741l-389 -741q-86 -160 -217 -160t-151 160l-99 725 l-243 -674q-78 -215 -234 -215q-59 0 -100 38t-41 95z" />
<glyph unicode="N" horiz-adv-x="1478" d="M31 123q0 18 4 37l254 1196q35 166 166 166q100 0 176 -119l489 -766l156 733q16 70 73.5 109t125.5 39q57 0 94 -27q41 -33 41 -86q0 -16 -2 -35l-262 -1227q-31 -143 -154 -143q-117 0 -182 111l-482 807l-161 -758q-16 -76 -75 -118t-126 -42q-57 0 -96 32t-39 91z " />
<glyph unicode="O" horiz-adv-x="1628" d="M141 571q0 371 252 670q276 328 684 328q295 0 453 -176q141 -160 141 -416q0 -371 -252 -672q-276 -332 -680 -332q-295 0 -454 179q-144 161 -144 419zM522 545q47 -242 287 -242q231 0 381 242q110 175 109 349q0 51 -9 101q-41 242 -278 242q-242 0 -391 -242 q-108 -173 -109 -345q0 -52 10 -105z" />
<glyph unicode="P" horiz-adv-x="1212" d="M33 133q0 20 4 43l258 1210q10 49 62.5 91.5t99.5 42.5h467q209 0 317 -115q96 -102 96 -270q0 -236 -161 -437q-172 -215 -406 -215h-317l-68 -311q-16 -82 -76.5 -128t-132.5 -46q-59 0 -101 36t-42 99zM520 803h217q102 0 170 82q59 74 60 166q0 152 -144 151h-219z " />
<glyph unicode="Q" horiz-adv-x="1695" d="M143 575q0 373 248 666q279 328 707 328q281 0 440 -183q147 -168 148 -430q0 -369 -269 -657q35 -43 127 -156q29 -35 29 -80q0 -66 -58.5 -120t-128.5 -54q-49 0 -86 35l-151 152q-250 -100 -449 -101q-272 0 -421 179q-136 163 -136 421zM518 643q0 -160 90 -250 q88 -86 249 -86q26 0 54 2q-18 18 -51 72q-33 47 -33 98q0 72 55.5 125t125.5 53q72 0 125 -59q25 -23 63 -70q111 211 111 394q0 315 -330 315q-182 0 -326 -197q-133 -186 -133 -397z" />
<glyph unicode="R" horiz-adv-x="1275" d="M31 113q0 27 6 57l258 1216q8 41 55 87.5t88 46.5h566q199 0 288 -183q45 -89 45 -181q0 -95 -47 -193q-106 -219 -401 -308l252 -387q31 -47 30 -98q0 -80 -62 -139.5t-138 -59.5q-98 0 -158 99l-334 553l-96 -453q-18 -90 -88 -145q-61 -49 -133 -50q-131 1 -131 138z M535 885h253q76 0 125 65q45 59 45 135q0 117 -102 117h-254z" />
<glyph unicode="S" horiz-adv-x="1255" d="M45 195q0 74 57.5 127t151.5 53q68 0 145 -31q111 -45 217 -45q180 0 211 145q2 12 2 23q0 76 -145 137q-229 98 -272 129q-145 100 -146 266q0 49 13 103q45 219 251 350q184 117 410 117q143 0 251.5 -53.5t108.5 -161.5q0 -76 -53 -136.5t-129 -60.5q-37 0 -74 19 q-109 49 -221 49q-77 0 -131 -34.5t-54 -97.5q0 -48 136 -98q209 -76 281 -127q154 -106 153 -286q0 -49 -10 -107q-55 -258 -258 -389q-176 -113 -424 -113q-180 0 -344 60q-127 47 -127 162z" />
<glyph unicode="T" horiz-adv-x="1224" d="M285 1323q0 72 53 134.5t133 62.5h797q141 0 141 -127q0 -72 -53 -127q-61 -63 -154 -64h-231l-215 -1007q-18 -94 -84 -148q-57 -49 -125 -49q-57 0 -95 36t-38 101q0 23 6 49l215 1018h-223q-127 0 -127 121z" />
<glyph unicode="U" horiz-adv-x="1460" d="M111 449q0 74 18 155l152 719q20 92 88 145q59 49 131 50q59 0 98 -35t39 -99q0 -20 -6 -45l-160 -751q-6 -29 -6 -58q0 -102 82 -165q74 -57 184 -58q117 0 209 66q102 72 129 198l160 752q18 92 86 147q59 47 133 48q59 0 100 -35t41 -101q0 -20 -6 -43l-170 -800 q-55 -260 -293 -418q-215 -145 -477 -146q-227 0 -373 117q-159 128 -159 357z" />
<glyph unicode="V" horiz-adv-x="1441" d="M285 1319q0 88 63 145q57 53 133 54q135 0 162 -148l143 -747l457 747q90 147 227 148q59 0 100.5 -35t41.5 -90q0 -49 -33 -105l-709 -1128q-102 -162 -211 -162t-141 162l-227 1112q-6 24 -6 47z" />
<glyph unicode="W" horiz-adv-x="2103" d="M287 1327q-4 78 65.5 137.5t149.5 59.5q139 0 143 -168l14 -785l383 701q135 248 269 248q137 0 164 -265l69 -684l348 785q74 166 228 166q57 0 97 -33t40 -88q0 -37 -19 -78l-524 -1147q-39 -84 -111.5 -130t-150.5 -46q-72 0 -119 35q-53 41 -61 108l-96 742 l-383 -709q-96 -178 -267 -178q-76 0 -127 47t-55 131z" />
<glyph unicode="X" horiz-adv-x="1462" d="M29 115q0 102 114 223l465 491l-200 373q-31 57 -31 113q0 88 69 147q63 55 144 56q84 0 119 -66l178 -330l321 330q66 68 150 68q63 0 106 -38t43 -98q0 -78 -80 -163l-380 -400l307 -559q16 -31 16 -63q0 -76 -72.5 -138.5t-152.5 -62.5q-78 0 -113 65l-258 472 l-434 -445q-94 -94 -190 -94q-53 0 -87 32t-34 87z" />
<glyph unicode="Y" horiz-adv-x="1312" d="M281 1309q0 76 71.5 142.5t151.5 66.5q84 0 127 -86l188 -381l326 368q90 104 192 105q63 0 106.5 -41t43.5 -101q0 -66 -57 -127l-521 -553l-118 -559q-14 -68 -69.5 -105.5t-121.5 -37.5q-61 0 -100 31q-45 35 -45 94q0 16 4 35l116 542l-280 547q-14 29 -14 60z" />
<glyph unicode="Z" horiz-adv-x="1329" d="M33 139q0 78 59 142l881 921h-502q-131 0 -131 125q0 72 51 132.5t131 60.5h733q88 0 138.5 -43t50.5 -109q0 -78 -68 -147l-862 -908h584q152 0 151 -127q0 -70 -55 -125q-59 -61 -147 -61h-848q-166 0 -166 139z" />
<glyph unicode="[" horiz-adv-x="761" d="M-45 -233q0 20 4 38l346 1631q29 133 146 133h317q111 0 111 -99q0 -57 -41 -100q-47 -47 -123 -49h-152l-301 -1417h158q72 0 72 -92q0 -57 -34 -106.5t-87 -49.5h-328q-88 0 -88 111z" />
<glyph unicode="\" horiz-adv-x="1144" d="M309 1448q0 55 48.5 103t103.5 48q82 0 117 -114l389 -1299q8 -29 8 -57q0 -66 -42 -110t-97 -44q-80 0 -109 95l-412 1349q-6 13 -6 29z" />
<glyph unicode="]" horiz-adv-x="761" d="M-49 -250q0 -94 100 -94h328q53 0 98 51q39 43 51 98l346 1631q4 27 5 47q0 86 -95 86h-346q-57 0 -94 -49048BC3AAE3" />
<glyph unicode="^" d="M416 709q0 39 20 69l516 707q66 90 142 90q98 0 137 -123l201 -631q4 -16 4 -33q0 -55 -44 -103t-98 -48q-04231CEA7A" />
<glyph unicode="_" horiz-adv-x="1003" d="M-137 -213q0 25 31.5 47.5t72.5 22.5h1004q76 0 76 -43q0 -25 -23 -49.5t-41 -24.5h-1022q-98 0 -98 47z" />
<glyph unicode="`" horiz-adv-x="720" d="M217 1008q0 55 45 114l277 363q61 84 161 84q57 0 97.5 -29t40.5 -72q0 -31 -23 -63l-323 -453q-53 -74 -136 -73q-55 0 -97 36t-42 93z" />
<glyph unicode="a" horiz-adv-x="1277" d="M104 418q0 281 181 508q199 252 493 252q59 0 133 -39q68 -35 109 -80q66 119 184 119q53 0 90 -33t37 -94q0 -20 -6 -43l-195 -924q-12 -53 -66 -82t-120 -29q-68 0 -110 29q-35 23 -35 61q0 9 2 19q-150 -106 -297 -107q-197 0 -303 131q-97 119 -97 312zM436 510 q0 -90 45 -145q51 -63 146 -64q125 0 211 115q80 104 80 231q0 86 -44 139q-49 59 -139 60q-133 0 -221 -111q-78 -98 -78 -225z" />
<glyph unicode="b" horiz-adv-x="1239" d="M20 80q0 14 5 33l268 1267q14 68 69 107q49 35 113 35q57 0 97 -30t40 -83q0 -12 -2 -27l-63 -290q113 82 313 82q195 0 299 -127q94 -115 94 -306q0 -279 -180 -510q-197 -256 -487 -256q-184 0 -248 127q-14 -61 -68.5 -97t-117.5 -36q-132 0 -132 111zM428 510 q0 -90 47 -148q51 -63 143 -63q121 0 211 121q84 115 84 244q0 188 -182 188q-135 0 -223 -113q-80 -102 -80 -229z" />
<glyph unicode="c" horiz-adv-x="1077" d="M96 414q0 274 189 508q205 252 485 252q252 0 328 -84q59 -70 59 -140q0 -63 -47 -108t-100 -45q-18 0 -33 6q-119 53 -209 53q-145 0 -246 -123q-90 -113 -90 -246q0 -84 46 -139t134 -55t262 61q20 8 41 8q43 0 70 -30.5t27 -75.5q0 -100 -111 -172q-72 -45 -184 -78 q-104 -31 -168 -31q-225 0 -346 131q-107 115 -107 308z" />
<glyph unicode="d" horiz-adv-x="1277" d="M111 430q0 279 172 500q190 248 485 248q160 0 240 -95l57 265q16 82 80 129q55 43 123 43q57 0 97 -34t40 -95q0 -20 -6 -43l-264 -1244q-12 -63 -66.5 -98t-122.5 -35q-59 0 -103 29t-44 80q0 10 4 22q-160 -119 -305 -118q-190 0 -293 133q-94 120 -94 313zM440 504 q0 -88 45 -142q49 -61 142 -61q121 0 211 121q84 113 84 242q0 188 -179 188q-133 0 -221 -115q-82 -104 -82 -233z" />
<glyph unicode="e" horiz-adv-x="1265" d="M109 449q0 63 14 131q59 281 276 446q195 150 426 150q188 0 310 -103q131 -113 131 -307q0 -66 -15 -137q-33 -154 -135 -154h-649q12 -209 219 -209q74 0 154 29q72 25 108 57q57 49 113 49q47 0 75.5 -32.5t28.5 -81.5q0 -119 -147 -205q-184 -106 -383 -107 q-221 0 -371 125q-155 134 -155 349zM510 711h432q-4 92 -55 145q-47 47 -119 47t-139 -49q-74 -51 -119 -143z" />
<glyph unicode="f" horiz-adv-x="946" d="M207 952q0 70 45 123q51 61 129 62h76l20 94q29 145 146.5 241.5t287.5 96.5q68 0 121 -46t53 -110q0 -14 -2 -29q-14 -63 -57 -81q-29 -12 -94 -13h-6q-51 0 -76 -6q-35 -8 -47 -45l-21 -102q41 0 136 -2q117 0 116 -115q0 -68 -45 -123q-51 -59 -129 -61h-139 l-146 -682q-16 -72 -71 -113t-119 -41q-127 0 -127 123q0 23 4 47l141 666q-23 -2 -75 -2q-121 -1 -121 118z" />
<glyph unicode="g" horiz-adv-x="1265" d="M-31 -248q0 66 50.5 124t99.5 58q25 0 41 -16q25 -25 116 -61q117 -49 220 -50q254 0 307 299q-53 -59 -156 -96q-92 -35 -174 -35q-184 0 -283 125q-88 115 -88 299q0 285 179 519q197 260 483 260q184 0 235 -140q16 68 74 107q51 35 117 35q57 0 96 -29t39 -82 q0 -14 -4 -31l-211 -993q-51 -248 -268 -393q-195 -131 -439 -131q-231 0 -378 121q-56 44 -56 110zM440 475q0 -90 43 -147.5t129 -57.5q127 0 213 121q78 109 78 242q0 90 -43 148.5t-127 58.5q-127 0 -215 -121q-78 -111 -78 -244z" />
<glyph unicode="h" horiz-adv-x="1173" d="M29 119q0 16 4 37l258 1210q14 72 76 115q55 39 125 39q57 0 96 -31t39 -88q0 -16 -4 -37l-60 -277q133 92 295 93q143 0 238 -74q102 -80 102 -219q0 -39 -8 -84l-137 -647q-16 -74 -72.5 -115t-122.5 -41q-55 0 -92 30.5t-37 84.5q0 16 4 35l117 552q4 20 4 39 q0 68 -48 106t-116 38q-70 0 -125 -41q-63 -45 -80 -123l-120 -565q-14 -74 -73 -115t-128 -41q-57 0 -96 31t-39 88z" />
<glyph unicode="i" horiz-adv-x="536" d="M66 131q0 25 6 51l159 756q18 86 80 139q55 45 121 45q123 0 123 -131q0 -25 -6 -53l-160 -750q-18 -90 -70EDCAC6A06" />
<glyph unicode="j" horiz-adv-x="540" d="M-49 -365q0 18 4 37l274 1295q16 76 78 120q53 39 121 39q59 0 98 -32.5t39 -92.5q0 -20 -4 -40l-274 -12806A3F02A91" />
<glyph unicode="k" horiz-adv-x="1122" d="M33 131q0 25 6 53l248 1164q16 80 75.5 125t124.5 45q59 0 97.5 -34t38.5 -93q0 -20 -5 -43l-116 -562l405 336q66 53 135 54q59 0 99.5 -38t40.5 -91q0 -72 -70 -129l-321 -265l227 -374q23 -39 22 -82q0 -76 -60 -137.5t-132 -61.5q-82 0 -133 86l-266 455l-76 -359 q-18 -84 -84 -135q-57 -47 -127 -47q-129 0 -129 133z" />
<glyph unicode="l" horiz-adv-x="493" d="M33 131q0 20 4 43l246 1159q20 90 82 142q55 45 122 45q55 0 95.5 -35t40.5 -94q0 -18 -7 -39l-249 -1178q-18 -84 -74.5 -130t-122.5 -46q-57 0 -97 36t-40 97z" />
<glyph unicode="m" horiz-adv-x="1798" d="M31 123q0 18 4 37l184 874q31 143 178 144q57 0 99.5 -32t42.5 -83q0 -14 -2 -27q139 141 321 142q182 0 279 -142q145 139 364 140q158 0 246 -86q73 -70 73 -181q0 -40 -10 -86l-139 -653q-16 -82 -78 -129q-53 -43 -120 -43q-59 0 -100.5 35t-41.5 96q0 20 4 41 l109 516q6 25 6 47q0 66 -40 103.5t-97 37.5q-61 0 -109 -43q-55 -47 -74 -133l-116 -555q-14 -66 -72.5 -104.5t-124.5 -38.5q-137 0 -137 121q0 18 4 41l117 540q4 23 4 41q0 59 -37 91t-92 32q-66 0 -119 -41q-59 -45 -76 -123l-114 -542q-16 -76 -78 -121 q-53 -39 -121 -39q-57 0 -97 32t-40 91z" />
<glyph unicode="n" horiz-adv-x="1177" d="M35 141q0 25 6 56l176 821q14 74 74 119q51 39 115 39q55 0 92 -32t37 -87q0 -18 -5 -39q113 158 334 158q05B6A07AEC" />
<glyph unicode="o" horiz-adv-x="1255" d="M106 422q0 281 187 506q209 250 524 250q207 0 322 -142q104 -129 104 -329q0 -279 -184 -492q-205 -240 -537 -240q-205 0 -315 134q-101 120 -101 313zM442 502q0 -197 166 -197q133 0 226 109q84 98 84 219q0 90 -52 145q-57 61 -166 62q-109 0 -186 -113 q-72 -102 -72 -225z" />
<glyph unicode="p" horiz-adv-x="1251" d="M-70 -354q0 23 4 49l283 1323q16 78 74 121q51 39 115 39q55 0 94 -31t39 -82q0 -14 -2 -29q152 137 313 138q190 0 297 -138q94 -123 94 -321q0 -279 -168 -496q-186 -244 -477 -244q-147 0 -252 82l-80 -376q-14 -74 -80 -119q-57 -43 -127 -43q-127 0 -127 127z M442 494q0 -90 45 -144q51 -61 144 -61q125 0 209 114q76 104 75 234q0 88 -38 143q-45 59 -129 60q-133 0 -224 -115q-82 -104 -82 -231z" />
<glyph unicode="q" horiz-adv-x="1261" d="M104 406q0 281 172 514q193 254 467 254q164 0 258 -119q12 55 74 90q55 33 121 33q127 0 127 -97q0 -14 -2 -28l-295 -1387q-16 -70 -72.5 -107.5t-124.5 -37.5q-57 0 -98 30.5t-41 83.5q0 14 2 31l82 393q-143 -84 -289 -84q-188 0 -290 127q-91 116 -91 304zM426 498 q0 -90 43 -146q49 -61 139 -61q125 0 211 121q76 109 76 241q0 88 -39 144q-45 59 -127 59q-133 0 -221 -119q-82 -108 -82 -239z" />
<glyph unicode="r" horiz-adv-x="829" d="M25 94q0 23 6 47l186 877q33 156 178 156q57 0 98.5 -32t41.5 -83q0 -14 -3 -29q135 137 293 137q47 0 80 -49q27 -45 27 -102q0 -104 -115 -158l-221 -78q-129 -55 -152 -164l-100 -475q-16 -78 -74.5 -123t-124.5 -45q-120 0 -120 121z" />
<glyph unicode="s" horiz-adv-x="1001" d="M39 162q0 68 42 125t105 57q33 0 68 -18q156 -80 244 -80q41 0 69 19.5t28 55.5q0 39 -99 85q-166 76 -207 104q-115 82 -115 199q0 29 6 59q41 193 195 305q141 102 319 103q168 0 291 -93q61 -47 62 -120q0 -59 -41 -107.5t-95 -48.5q-27 0 -51 14q-131 74 -239 74 q-43 0 -72 -19t-29 -54q0 -37 96 -91q152 -86 201 -129q111 -96 111 -229q0 -37 -8 -76q-35 -164 -183 -248q-129 -74 -307 -74q-217 0 -348 91q-43 30 -43 96z" />
<glyph unicode="t" horiz-adv-x="972" d="M205 944q0 72 47 129q48 64 114 64h5h114q12 55 43 215q16 78 78 125q55 39 121 39q53 0 90 -29t37 -82q0 -16 -4 -35l-49 -233h133q135 0 135 -121q0 -68 -51 -121q-55 -59 -141 -59l-123 2l-144 -674q-16 -80 -74.5 -123t-127.5 -43q-57 0 -95 31q-43 31 -43 86 q0 16 4 32l148 691q-33 0 -105 -2q-4 0 -7 -1q-105 0 -105 109z" />
<glyph unicode="u" horiz-adv-x="1175" d="M80 322q0 59 14 122l113 529q16 78 74 123q53 39 114 39q55 0 92 -32t37 -89q0 -20 -4 -41l-104 -494q-6 -23 -6 -43q0 -68 45 -104.5t110 -36.5q74 0 136.5 48t80.5 136l103 477q18 84 77.5 131.5t127.5 47.5q57 0 96 -35t39 -99q0 -20 -6 -45l-115 -544 q-51 -238 -311 -365q-159 -77 -308 -77q-83 0 -163 24q-242 72 -242 328z" />
<glyph unicode="v" horiz-adv-x="1155" d="M203 928q0 98 59 157q51 51 125 52q59 0 103.5 -36t52.5 -102l71 -518l277 502q86 158 223 158q121 0 121 -119q0 -70 -55 -156l-473 -755q-70 -111 -193 -111q-119 0 -143 111l-158 737q-10 43 -10 80z" />
<glyph unicode="w" horiz-adv-x="1769" d="M213 967q-1 9 -1 17q0 57 47 103q54 53 124 54q121 0 141 -156l64 -485l266 452q109 186 211 187q98 0 123 -170l65 -486l258 518q70 139 218 140q121 0 120 -107q0 -51 -37 -116l-428 -742q-102 -176 -239 -176q-63 0 -108.5 44t-53.5 118l-45 409l-240 -426 q-82 -145 -219 -145q-135 0 -151 129z" />
<glyph unicode="x" horiz-adv-x="1202" d="M35 147q0 82 74 148l346 309l-166 211q-45 57 -45 123q0 80 61.5 141.5t138.5 61.5q90 0 144 -90l123 -199l217 207q68 63 153 63q59 0 100.5 -34.5t41.5 -90.5q0 -92 -117 -192l-252 -217l211 -293q35 -45 35 -94q0 -80 -79 -140.5t-155 -60.5q-51 0 -71 33l-195 301 l-311 -285q-53 -49 -113 -49q-57 0 -99 43t-42 104z" />
<glyph unicode="y" horiz-adv-x="1150" d="M106 -358q0 43 25 86l217 358q-61 324 -139 776q-6 33 -6 62q0 98 59 157q53 55 125 56q127 0 145 -140l70 -497l295 479q96 158 223 158q109 0 109 -117q0 -76 -62 -174l-743 -1190q-88 -139 -195 -139q-51 0 -87 36t-36 89z" />
<glyph unicode="z" horiz-adv-x="1132" d="M25 86q0 72 38 113l594 618h-297q-76 0 -118 41q-37 35 -37 90q0 72 59.5 130.5t157.5 58.5h672q121 0 120 -99q0 -57 -47 -106l-620 -635h366q117 0 117 -113q0 -70 -47 -125q-53 -59 -131 -59h-766q-61 0 -61 86z" />
<glyph unicode="{" horiz-adv-x="933" d="M125 571q0 14 4 33q16 78 66 96l127 37q84 33 104 269q27 291 86 393q113 197 430 176q113 -8 113 -94q0 -0333D96AA6" />
<glyph unicode="|" horiz-adv-x="458" d="M-33 -174q0 23 6 47l346 1628q16 80 70 125q47 41 103 41q102 0 102 -106q0 -20 -6 -41l-352 -1663q-14 -70 -61.5 -109t-100.5 -39q-107 0 -107 117z" />
<glyph unicode="}" horiz-adv-x="933" d="M-49 -248q0 -72 69 -80q57 -6 109 -6q242 0 342 146q61 92 94 319q33 236 82 315q41 68 131 76q76 6 92 82q4 25 4 43q0 43 -40 58q-51 16 -101 32q-37 18 -37 74q0 55 65.5 250.5t65.5 292.5q0 244 -360 221q-70 -6 -114 -45t-44 -84q0 -76 104.5 -80t104.5 -98 q0 -55 -58.5 -224.5t-58.5 -246.5q0 -145 160 -174q-203 -63 -260 -261q-23 -164 -47.5 -329.5t-157.5 -177.5q-145 -11 -145 -103z" />
<glyph unicode="~" horiz-adv-x="1288" d="M111 498q0 129 119.5 234.5t248.5 105.5q72 0 235 -76t214 -76q41 0 131 60.5t119 60.5q70 0 69 -76q0 -119 -109.5 -227.5t-228.5 -108.5q-102 0 -259.5 75t-209.5 75q-49 0 -144 -67.5t-124 -67.5q-61 0 -61 88z" />
<glyph unicode="&#xa1;" horiz-adv-x="1097" d="M272 1260q0 78 57.5 144t143.5 66q133 0 133 -133q0 -76 -53 -135q-57 -68 -150 -67q-131 0 -131 125zM621 1597q0 57 29.5 113.5t74.5 75.5l344 137q45 16 84 16q61 0 97 -38.5t36 -92.5q0 -102 -100 -137l-453 -155q-25 -8 -43 -9q-69 0 -69 90zM766 1264q0 72 49 127 q53 63 135 63q141 0 142 -123q0 -72 -54 -129q-59 -63 -145 -63q-127 0 -127 125z" />
<glyph unicode="&#xa3;" horiz-adv-x="1495" d="M158 721q0 20 6 47q23 106 108 143q57 25 177 25q-4 35 -5 70q0 258 176.5 402t475.5 144q358 0 454 -299q6 -18 6 -39q0 -68 -60 -123t-126 -55q-49 0 -78 33q-90 106 -125 129q-49 37 -133 37q-111 0 -188.5 -65.5t-77.5 -153.5q0 -51 27 -98q23 0 74 3t79 3 q174 0 174 -113q0 -20 -6 -45q-20 -98 -86 -135q-47 -29 -139 -29q-20 0 -64 2h-65q4 -12 4 -26q0 -90 -127 -244h565q139 0 139 -129q0 -74 -51 -137.5t-125 -63.5h-850q-76 0 -106 14q-47 23 -47 91q0 35 12 90q6 29 66 94q80 88 110 131q61 90 76 180q-137 0 -180 10 q-90 21 -90 107z" />
<glyph unicode="&#xa4;" horiz-adv-x="1507" d="M96 428q0 90 101 174l227 186q-10 49 -10 101q0 158 96 311l-148 189q-41 51 -40 108q0 72 54 126t124 54q82 0 141 -78l131 -163q102 45 211 45q100 0 176 -41l195 159q92 78 174 78q53 0 85 -32.5t32 -81.5q0 -92 -101 -174l-225 -187q8 -45 8 -96q0 -170 -94 -322 l137 -174q39 -51 39 -108q0 -72 -53 -126t-125 -54q-80 0 -141 77l-125 160q-100 -39 -201 -39q-100 0 -172 39l-205 -168q-92 -78 -174 -78q-53 0 -85 32t-32 83zM682 940q0 -156 137 -156q100 0 174 90q66 82 66 181q0 154 -156 153q-96 0 -158.5 -85t-62.5 -183z" />
<glyph unicode="&#xa5;" horiz-adv-x="1439" d="M207 809q0 70 49 130t125 60h74l-156 304q-10 23 -10 47q0 72 77.5 139t157.5 67q76 0 111 -71l211 -434l368 417q72 80 162 80q68 0 117 -44t49 -103q0 -53 -41 -98l-287 -304h58q111 0 110 -114q0 -70 -45 -127q-51 -61 -129 -62h-272l-16 -82h188q111 0 111 -114 q0 -70 -48 -125q-49 -61 -127 -62h-190l-41 -194q-12 -61 -68.5 -97t-121.5 -36q-61 0 -102.5 30.5t-41.5 85.5q0 16 2 35l39 176h-203q-109 0 -108 111q0 70 49 130t123 60h203l18 82h-285q-110 0 -110 113z" />
<glyph unicode="&#xa6;" horiz-adv-x="440" d="M23 84q0 25 6 53l290 1364q16 78 66 123q43 43 94 43q94 0 94 -113q0 -25 -6 -53l-293 -1382q-14 -61 -61 -101.5t-98 -40.5q-92 1 -92 107z" />
<glyph unicode="&#xa7;" horiz-adv-x="1239" d="M39 -129q0 66 47 111t104 45q61 0 99 -50q27 -33 103.5 -63.5t142.5 -30.5q94 0 108 66q2 16 2 31q0 82 -133 167q-236 150 -248 160q-133 113 -133 262q0 43 8 88q23 104 90 172q10 10 160 121q-47 109 -47 197q0 37 8 74q35 158 180 252q135 86 308 86q264 0 374 -181 q16 -25 17 -57q0 -61 -47 -115.5t-103 -54.5q-39 0 -70.5 29.5t-103.5 64.5q-90 45 -151 45q-82 0 -99 -78q-16 -74 117 -157q250 -162 256 -166q141 -119 141 -266q0 -35 -8 -76q-39 -184 -262 -328q72 -72 72 -180q0 -31 -6 -62q-39 -178 -195 -276q-139 -86 -321 -86 q-131 0 -236 45q-111 49 -154 131q-20 41 -20 80zM422 653q0 -45 51 -82q80 -63 270 -188q8 -4 15 -4q29 0 63 51q31 43 39 82q2 12 2 25q0 96 -147 182q-88 43 -176 84q-117 -82 -117 -150z" />
<glyph unicode="&#xa8;" horiz-adv-x="1005" d="M297 1378q0 78 56.5 142.5t146.5 64.5q131 0 131 -133q0 -76 -53 -135q-57 -66 -150 -66q-131 0 -131 127zM791 1380q0 72 53 130.5t141 58.5q131 0 131 -121q0 -72 -51 -129q-59 -63 -145 -64q-129 0 -129 125z" />
<glyph unicode="&#xa9;" horiz-adv-x="1759" d="M145 592q0 367 261 657q285 319 714 320q317 0 486 -174q152 -154 151 -410q0 -369 -268 -678q-289 -336 -692 -336q-319 0 -496 187q-156 166 -156 434zM385 635q0 -193 111 -313q121 -135 348 -136q287 0 485 242q184 223 184 492q0 188 -104 305q-117 129 -336 129 q-301 0 -504 -236q-184 -215 -184 -483zM549 670q0 213 139 383q156 186 391 186q119 0 199 -53q88 -59 88 -164q0 -25 -6 -53q-16 -80 -103 -80q-55 0 -73.5 38t-36.5 72q-29 39 -103 39q-117 0 -192 -104q-70 -96 -70 -215q0 -84 39 -135q43 -57 121 -58q74 0 150.5 86 t146.5 86q53 0 53 -63q0 -133 -147 -227q-129 -84 -268 -84q-160 0 -248 102q-80 94 -80 244z" />
<glyph unicode="&#xaa;" horiz-adv-x="747" d="M250 1139q0 141 90 256q100 127 248 127q68 0 121 -58q35 61 94 62q78 0 59 -88l-94 -443q-16 -78 -106 -77q-72 0 -64 53q-74 -53 -147 -53q-98 0 -152 65q-49 60 -49 156zM416 1184q0 -104 94 -105q63 0 105 55.5t42 120.5q0 102 -92 103q-66 0 -107.5 -54t-41.5 -120z " />
<glyph unicode="&#xab;" horiz-adv-x="1230" d="M129 586q0 98 127 192q12 10 258 158q45 27 80 27q88 0 88 -107q0 -94 -78 -135l-211 -117l174 -135q25 -18 25 -53q0 -53 -50 -107.5t-108 -54.5q-41 0 -76 31l-192 184q-37 62 -37 117zM653 561q0 92 131 195q47 35 260 162q45 29 82 28q86 0 86 -106q0 -94 -77 -138 l-209 -114l172 -135q25 -20 24 -54q0 -53 -51 -107t-108 -54q-41 0 -74 30l-193 185q-43 55 -43 108z" />
<glyph unicode="&#xac;" horiz-adv-x="1466" d="M123 563q0 70 49 130.5t125 60.5h1001q104 0 105 -121q0 -31 -8 -66l-74 -344q-12 -66 -64.5 -101.5t-113.5 -35.5q-53 0 -89 28.5t-36 78.5q0 14 2 30l49 230h-836q-110 -1 -110 110z" />
<glyph unicode="&#xad;" horiz-adv-x="989" d="M143 563q0 70 49.5 130.5t124.5 60.5h517q111 0 110 -115q0 -70 -47 -125q-51 -61 -127 -61h-518q-109 -1 -109 110z" />
<glyph unicode="&#xae;" horiz-adv-x="1777" d="M143 586q0 362 267 659q291 324 706 324q319 0 494 -189q156 -170 155 -440q0 -358 -249 -641q-276 -311 -701 -311q-336 0 -512 178q-160 160 -160 420zM395 608q0 -186 103 -299q115 -125 329 -125q313 0 510 234q174 209 174 483q0 201 -104 328q-113 141 -315 141 q-295 0 -504 -254q-193 -232 -193 -508zM584 440q0 20 6 43l131 623q10 47 29.5 64.5t70.5 17.5h348q94 0 148 -51q47 -47 47 -125q0 -92 -64 -181q-70 -94 -188 -145l107 -217q4 -12 4 -25q0 -37 -37 -62.5t-80 -25.5q-45 0 -59 29l-162 317h-68l-49 -233 q-25 -121 -113 -121q-71 0 -71 92zM850 852h164q55 0 89 35t34 78q0 72 -82 71h-166z" />
<glyph unicode="&#xaf;" horiz-adv-x="1372" d="M356 1669q0 25 31 47.5t74 22.5h1001q76 0 76 -43q0 -25 -22.5 -49.5t-38.5 -24.5h-1024q-97 0 -97 47z" />
<glyph unicode="&#xb0;" horiz-adv-x="940" d="M250 1122q0 180 119 324q131 160 329 160q160 0 246 -88q74 -76 74 -203q0 -182 -131 -334q-143 -164 -3420C70E16A5B" />
<glyph unicode="&#xb1;" d="M188 113q0 70 49.5 130t124.5 60h912q111 0 110 -115q0 -70 -45 -125q-51 -61 -129 -61h-911q-111 0 -111 111zM360 903q0 70 49.5 130.5t122.5 60.5h314l67 317q14 66 70 102q49 35 113 35q125 0 125 -106q0 -14 -2 -31l-70 -317h319q109 0 109 -113q0 -70 -49 -129 t-123 -59h-320l-67 -316q-12 -66 -65.5 -101.5t-114.5 -35.5q-53 0 -90 27.5t-37 78.5q0 14 4 31l67 316h-313q-109 -1 -109 110z" />
<glyph unicode="&#xb2;" horiz-adv-x="714" d="M174 815q10 51 84 111q307 238 334 360q12 57 -62 57q-37 0 -62.5 -37.5t-49.5 -74.5q-37 -49 -86 -49q-61 0 -62 59q0 18 9 39q41 104 120.5 168.5t178.5 64.5q90 0 145 -51t55 -133q0 -27 -4 -53q-23 -102 -127 -207q-98 -86 -194 -170h198q47 0 47 -59 q0 -37 -22.5 -67t-57.5 -30h-391q-69 0 -53 72z" />
<glyph unicode="&#xb3;" horiz-adv-x="722" d="M195 881q-6 55 25.5 94t72.5 39q35 0 57 -31q16 -29 33 -55q25 -31 70 -31t75.5 34t30.5 70q0 57 -61 58q-41 0 -66.5 21.5t-25.5 52.5q0 74 122 100q72 14 70 63q-4 59 -45 60q-55 0 -152 -84q-16 -16 -39 -17q-61 0 -61 70q0 39 35 78q96 115 250 115q90 0 138 -47.5 t48 -116.5q0 -117 -113 -197q82 -51 82 -145q0 -102 -92 -193q-98 -92 -223 -92q-80 0 -147 39q-76 45 -84 115z" />
<glyph unicode="&#xb4;" horiz-adv-x="823" d="M264 1225q0 55 29 109.5t76 72.5l346 137q49 20 92 21q59 0 93 -37t34 -90q0 -113 -105 -148l-452 -155q-23 -6 -39 -7q-74 1 -74 97z" />
<glyph unicode="&#xb5;" horiz-adv-x="1179" d="M-70 -352q0 23 4 47l271 1266q16 78 82 126q59 47 129 48q125 0 125 -129q0 -25 -6 -54l-113 -526q-4 -23 -4 -43q0 -113 129 -113q76 0 147.5 48.5t87.5 123.5l109 512q20 88 75.5 135.5t120.5 47.5q59 0 99.5 -37t40.5 -101q0 -23 -4 -45l-179 -821q-14 -74 -73.5 -117 t-122.5 -43q-121 0 -121 111q0 20 4 41q-102 -135 -305 -135q-47 0 -88 10l-57 -270q-23 -100 -91 -160q-61 -51 -133 -51q-55 0 -91 34t-36 95z" />
<glyph unicode="&#xb6;" horiz-adv-x="1241" d="M219 989q0 197 174 352q197 176 496 177h481l-33 -154h-114l-289 -1356h-156l289 1356h-176l-289 -1356h-153l145 678h-4q-182 0 -281 90q-90 82 -90 213zM297 989l49 228h47l27 -195l110 195h45l-47 -228h-30l41 191l-113 -191h-29l-28 195l-43 -195h-29zM561 928l2 22 q43 -10 66 -10q51 0 59 43l10 45q-23 -35 -69 -35q-61 0 -62 62q0 113 125 112q31 0 68 -8l-39 -182q-14 -59 -94 -59q-31 0 -66 10zM598 1075q-12 -61 41 -61q59 0 72 61l14 66q-18 4 -35 4q-78 0 -92 -70z" />
<glyph unicode="&#xb7;" horiz-adv-x="575" d="M211 975q0 86 65 153q72 76 181 76q145 0 145 -145q0 -86 -59 -158q-68 -78 -166 -78q-82 0 -124 43t-42 109z" />
<glyph unicode="&#xb9;" d="M739 1325q0 74 50.5 134.5t130.5 60.5h362q35 0 68.5 -41t27.5 -74l-260 -1219q-20 -100 -82.5 -155.5t-132.5 -55.5q-55 0 -92 37t-37 105q0 27 6 55l219 1030l-147 2q-113 2 -113 121z" />
<glyph unicode="&#xba;" horiz-adv-x="1255" d="M106 422q0 281 187 506q209 250 524 250q207 0 322 -142q104 -129 104 -329q0 -279 -184 -492q-205 -240 -537 -240q-205 0 -315 134q-101 120 -101 313zM442 502q0 -197 166 -197q133 0 226 109q84 98 84 219q0 90 -52 145q-57 61 -166 62q-109 0 -186 -113 q-72 -102 -72 -225z" />
<glyph unicode="&#xbb;" horiz-adv-x="1230" d="M78 350q0 -45 27.5 -78.5t72.5 -33.5q41 0 86 30l271 185q102 84 102 168q0 74 -84 159q-23 23 -168 138q-33 29 -70 28q-57 0 -101 -55t-44 -115q0 -49 33 -74l159 -114l-229 -135q-55 -35 -55 -103zM614 367q0 -45 28 -79t71 -34q41 0 88 31l272 184q100 96 101 180 q0 76 -84 154q-84 66 -168 133q-31 27 -68 27q-57 0 -102 -55.5t-45 -114.5q0 -49 34 -72l162 -117l-233 -135q-56 -32 -56 -102z" />
<glyph unicode="&#xbd;" horiz-adv-x="1177" d="M276 430q0 29 23 62l469 632q33 43 72 43q51 0 51 -47q0 -23 -19 -45l-491 -665q-23 -33 -55 -33q-50 0 -50 53zM311 1456q0 37 25.5 71t58.5 34h180q18 0 35 -20.5t13 -37.5l-129 -610q-8 -45 -41 -72.5t-66 -27.5q-61 0 -61 75q0 18 4 43l104 492q-76 0 -74 0 q-49 4 -49 53zM487 115q12 51 86 110q307 238 334 361q12 57 -61 57q-37 0 -63.5 -38t-51.5 -75q-35 -49 -86 -49q-59 0 -59 60q0 18 8 39q41 104 121 168.5t176 64.5q90 0 146.5 -51t56.5 -133q0 -27 -7 -54q-20 -102 -126 -206q-96 -86 -193 -170h199q45 0 45 -60 q0 -37 -21.5 -66.5t-56.5 -29.5h-391q-70 0 -56 72z" />
<glyph unicode="&#xc0;" horiz-adv-x="1472" d="M874 1821q0 55 45 114l277 363q61 84 161 84q57 0 97.5 -29t40.5 -72q0 -31 -23 -63l-323 -453q-53 -74 -136 -73q-55 0 -97 36t-42 93zM25 100q0 37 22 80l649 1143q113 197 283 197q166 0 201 -197l198 -1133q2 -16 2 -32q0 -74 -54 -117t-124 -43q-119 0 -141 100 q-20 70 -47 203h-568q-29 -61 -112 -197q-63 -111 -178 -110q-55 0 -93 29.5t-38 76.5zM612 623h369l-76 501z" />
<glyph unicode="&#xc1;" horiz-adv-x="1472" d="M919 1788q0 55 29 109.5t76 72.5l346 137q49 20 92 21q59 0 93 -37t34 -90q0 -113 -105 -148l-452 -155q-23 -6 -39 -7q-74 1 -74 97zM25 100q0 37 22 80l649 1143q113 197 283 197q166 0 201 -197l198 -1133q2 -16 2 -32q0 -74 -54 -117t-124 -43q-119 0 -141 100 q-20 70 -47 203h-568q-29 -61 -112 -197q-63 -111 -178 -110q-55 0 -93 29.5t-38 76.5zM612 623h369l-76 501z" />
<glyph unicode="&#xc2;" horiz-adv-x="1472" d="M537 1724q-31 37 0 80l518 707q63 90 139 90q98 0 138 -123l200 -631q4 -14 4 -28q0 -49 -46 -87t-101 -38q-82 0 -109 86l-143 483l-377 -500q-53 -72 -135 -71q-57 -1 -88 32zM25 100q0 37 22 80l649 1143q113 197 283 197q166 0 201 -197l198 -1133q2 -16 2 -32 q0 -74 -54 -117t-124 -43q-119 0 -141 100q-20 70 -47 203h-568q-29 -61 -112 -197q-63 -111 -178 -110q-55 0 -93 29.5t-38 76.5zM612 623h369l-76 501z" />
<glyph unicode="&#xc3;" horiz-adv-x="1472" d="M488 1794q0 129 119.5 234.5t248.5 105.5q72 0 235 -76t214 -76q41 0 131 60.5t119 60.5q70 0 69 -76q0 -119 -109.5 -227.5t-228.5 -108.5q-102 0 -259.5 75t-209.5 75q-49 0 -144 -67.5t-124 -67.5q-61 0 -61 88zM25 100q0 37 22 80l649 1143q113 197 283 197 q166 0 201 -197l198 -1133q2 -16 2 -32q0 -74 -54 -117t-124 -43q-119 0 -141 100q-20 70 -47 203h-568q-29 -61 -112 -197q-63 -111 -178 -110q-55 0 -93 29.5t-38 76.5zM612 623h369l-76 501z" />
<glyph unicode="&#xc4;" horiz-adv-x="1472" d="M635 1818q0 78 56.5 142.5t146.5 64.5q131 0 131 -133q0 -76 -53 -135q-57 -66 -150 -66q-131 0 -131 127zM1129 1820q0 72 53 130.5t141 58.5q131 0 131 -121q0 -72 -51 -129q-59 -63 -145 -64q-129 0 -129 125zM25 100q0 37 22 80l649 1143q113 197 283 197 q166 0 201 -197l198 -1133q2 -16 2 -32q0 -74 -54 -117t-124 -43q-119 0 -141 100q-20 70 -47 203h-568q-29 -61 -112 -197q-63 -111 -178 -110q-55 0 -93 29.5t-38 76.5zM612 623h369l-76 501z" />
<glyph unicode="&#xc5;" horiz-adv-x="1472" d="M682 1847q0 180 119 324q131 160 329 160q160 0 246 -88q74 -76 74 -203q0 -182 -131 -334q-143 -164 -342 -164q-145 0 -226 90q-69 84 -69 215zM887 1880q0 -123 123 -123q100 0 161 66q55 59 56 137q0 57 -33 96q-39 41 -105 41q-86 0 -144 -69.5t-58 -147.5zM25 100 q0 37 22 80l649 1143q113 197 283 197q166 0 201 -197l198 -1133q2 -16 2 -32q0 -74 -54 -117t-124 -43q-119 0 -141 100q-20 70 -47 203h-568q-29 -61 -112 -197q-63 -111 -178 -110q-55 0 -93 29.5t-38 76.5zM612 623h369l-76 501z" />
<glyph unicode="&#xc8;" horiz-adv-x="989" d="M643 1821q0 55 45 114l277 363q61 84 161 84q57 0 97.5 -29t40.5 -72q0 -31 -23 -63l-323 -453q-53 -74 -136 -73q-55 0 -97 36t-42 93zM25 115l266 1255q14 66 64.5 108t115.5 42h553q123 0 123 -136q0 -74 -45 -135t-117 -61h-399l-64 -293h369q102 0 102 -117 q0 -74 -44 -135t-111 -61h-381l-58 -269h369q133 0 133 -125q0 -70 -45 -129t-106 -59h-633q-37 0 -69 38q-25 30 -25 61q0 8 2 16z" />
<glyph unicode="&#xc9;" horiz-adv-x="989" d="M688 1788q0 55 29 109.5t76 72.5l346 137q49 20 92 21q59 0 93 -37t34 -90q0 -113 -105 -148l-452 -155q-23 -6 -39 -7q-74 1 -74 97zM25 115l266 1255q14 66 64.5 108t115.5 42h553q123 0 123 -136q0 -74 -45 -135t-117 -61h-399l-64 -293h369q102 0 102 -117 q0 -74 -44 -135t-111 -61h-381l-58 -269h369q133 0 133 -125q0 -70 -45 -129t-106 -59h-633q-37 0 -69 38q-25 30 -25 61q0 8 2 16z" />
<glyph unicode="&#xca;" horiz-adv-x="989" d="M305 1724q-31 37 0 80l518 707q63 90 139 90q98 0 138 -123l200 -631q4 -14 4 -28q0 -49 -46 -87t-101 -38q-82 0 -109 86l-143 483l-377 -500q-53 -72 -135 -71q-57 -1 -88 32zM25 115l266 1255q14 66 64.5 108t115.5 42h553q123 0 123 -136q0 -74 -45 -135t-117 -61 h-399l-64 -293h369q102 0 102 -117q0 -74 -44 -135t-111 -61h-381l-58 -269h369q133 0 133 -125q0 -70 -45 -129t-106 -59h-633q-37 0 -69 38q-25 30 -25 61q0 8 2 16z" />
<glyph unicode="&#xcb;" horiz-adv-x="989" d="M403 1818q0 78 56.5 142.5t146.5 64.5q131 0 131 -133q0 -76 -53 -135q-57 -66 -150 -66q-131 0 -131 127zM897 1820q0 72 53 130.5t141 58.5q131 0 131 -121q0 -72 -51 -129q-59 -63 -145 -64q-129 0 -129 125zM25 115l266 1255q14 66 64.5 108t115.5 42h553 q123 0 123 -136q0 -74 -45 -135t-117 -61h-399l-64 -293h369q102 0 102 -117q0 -74 -44 -135t-111 -61h-381l-58 -269h369q133 0 133 -125q0 -70 -45 -129t-106 -59h-633q-37 0 -69 38q-25 30 -25 61q0 8 2 16z" />
<glyph unicode="&#xcc;" horiz-adv-x="493" d="M387 1821q0 55 45 114l277 363q61 84 161 84q57 0 97.5 -29t40.5 -72q0 -31 -23 -63l-323 -453q-53 -74 -136 -73q-55 0 -97 36t-42 93zM33 131q0 23 4 45l248 1163q18 84 82 136q57 43 125 43q57 0 94 -32t37 -89q0 -20 -5 -41l-249 -1180q-18 -82 -78 -128t-125 -46 q-57 0 -95 34t-38 95z" />
<glyph unicode="&#xcd;" horiz-adv-x="493" d="M434 1788q0 55 29 109.5t76 72.5l346 137q49 20 92 21q59 0 93 -37t34 -90q0 -113 -105 -148l-452 -155q-23 -6 -39 -7q-74 1 -74 97zM33 131q0 23 4 45l248 1163q18 84 82 136q57 43 125 43q57 0 94 -32t37 -89q0 -20 -5 -41l-249 -1180q-18 -82 -78 -128t-125 -46 q-57 0 -95 34t-38 95z" />
<glyph unicode="&#xce;" horiz-adv-x="493" d="M49 1724q-31 37 0 80l518 707q63 90 139 90q98 0 138 -123l200 -631q4 -14 4 -28q0 -49 -46 -87t-101 -38q-82 0 -109 86l-143 483l-377 -500q-53 -72 -135 -71q-57 -1 -88 32zM33 131q0 23 4 45l248 1163q18 84 82 136q57 43 125 43q57 0 94 -32t37 -89q0 -20 -5 -41 l-249 -1180q-18 -82 -78 -128t-125 -46q-57 0 -95 34t-38 95z" />
<glyph unicode="&#xcf;" horiz-adv-x="493" d="M147 1818q0 78 56.5 142.5t146.5 64.5q131 0 131 -133q0 -76 -53 -135q-57 -66 -150 -66q-131 0 -131 127zM641 1820q0 72 53 130.5t141 58.5q131 0 131 -121q0 -72 -51 -129q-59 -63 -145 -64q-129 0 -129 125zM33 131q0 23 4 45l248 1163q18 84 82 136q57 43 125 43 q57 0 94 -32t37 -89q0 -20 -5 -41l-249 -1180q-18 -82 -78 -128t-125 -46q-57 0 -95 34t-38 95z" />
<glyph unicode="&#xd1;" horiz-adv-x="1478" d="M-36 1794q0 129 119.5 234.5t248.5 105.5q72 0 235 -76t214 -76q41 0 131 60.5t119 60.5q70 0 69 -76q0 -119 -109.5 -227.5t-228.5 -108.5q-102 0 -259.5 75t-209.5 75q-49 0 -144 -67.5t-124 -67.5q-61 0 -61 88zM31 123q0 18 4 37l254 1196q35 166 166 166 q100 0 176 -119l489 -766l156 733q16 70 73.5 109t125.5 39q57 0 94 -27q41 -33 41 -86q0 -16 -2 -35l-262 -1227q-31 -143 -154 -143q-117 0 -182 111l-482 807l-161 -758q-16 -76 -75 -118t-126 -42q-57 0 -96 32t-39 91z" />
<glyph unicode="&#xd2;" horiz-adv-x="1628" d="M962 1821q0 55 45 114l277 363q61 84 161 84q57 0 97.5 -29t40.5 -72q0 -31 -23 -63l-323 -453q-53 -74 -136 -73q-55 0 -97 36t-42 93zM141 571q0 371 252 670q276 328 684 328q295 0 453 -176q141 -160 141 -416q0 -371 -252 -672q-276 -332 -680 -332q-295 0 -454 179 q-144 161 -144 419zM522 545q47 -242 287 -242q231 0 381 242q110 175 109 349q0 51 -9 101q-41 242 -278 242q-242 0 -391 -242q-108 -173 -109 -345q0 -52 10 -105z" />
<glyph unicode="&#xd3;" horiz-adv-x="1628" d="M1009 1788q0 55 29 109.5t76 72.5l346 137q49 20 92 21q59 0 93 -37t34 -90q0 -113 -105 -148l-452 -155q-23 -6 -39 -7q-74 1 -74 97zM141 571q0 371 252 670q276 328 684 328q295 0 453 -176q141 -160 141 -416q0 -371 -252 -672q-276 -332 -680 -332q-295 0 -454 179 q-144 161 -144 419zM522 545q47 -242 287 -242q231 0 381 242q110 175 109 349q0 51 -9 101q-41 242 -278 242q-242 0 -391 -242q-108 -173 -109 -345q0 -52 10 -105z" />
<glyph unicode="&#xd4;" horiz-adv-x="1628" d="M625 1724q-31 37 0 80l518 707q63 90 139 90q98 0 138 -123l200 -631q4 -14 4 -28q0 -49 -46 -87t-101 -38q-82 0 -109 86l-143 483l-377 -500q-53 -72 -135 -71q-57 -1 -88 32zM141 571q0 371 252 670q276 328 684 328q295 0 453 -176q141 -160 141 -416 q0 -371 -252 -672q-276 -332 -680 -332q-295 0 -454 179q-144 161 -144 419zM522 545q47 -242 287 -242q231 0 381 242q110 175 109 349q0 51 -9 101q-41 242 -278 242q-242 0 -391 -242q-108 -173 -109 -345q0 -52 10 -105z" />
<glyph unicode="&#xd5;" horiz-adv-x="1628" d="M576 1794q0 129 119.5 234.5t248.5 105.5q72 0 235 -76t214 -76q41 0 131 60.5t119 60.5q70 0 69 -76q0 -119 -109.5 -227.5t-228.5 -108.5q-102 0 -259.5 75t-209.5 75q-49 0 -144 -67.5t-124 -67.5q-61 0 -61 88zM141 571q0 371 252 670q276 328 684 328 q295 0 453 -176q141 -160 141 -416q0 -371 -252 -672q-276 -332 -680 -332q-295 0 -454 179q-144 161 -144 419zM522 545q47 -242 287 -242q231 0 381 242q110 175 109 349q0 51 -9 101q-41 242 -278 242q-242 0 -391 -242q-108 -173 -109 -345q0 -52 10 -105z" />
<glyph unicode="&#xd6;" horiz-adv-x="1628" d="M723 1818q0 78 56.5 142.5t146.5 64.5q131 0 131 -133q0 -76 -53 -135q-57 -66 -150 -66q-131 0 -131 127zM1217 1820q0 72 53 130.5t141 58.5q131 0 131 -121q0 -72 -51 -129q-59 -63 -145 -64q-129 0 -129 125zM141 571q0 371 252 670q276 328 684 328q295 0 453 -176 q141 -160 141 -416q0 -371 -252 -672q-276 -332 -680 -332q-295 0 -454 179q-144 161 -144 419zM522 545q47 -242 287 -242q231 0 381 242q110 175 109 349q0 51 -9 101q-41 242 -278 242q-242 0 -391 -242q-108 -173 -109 -345q0 -52 10 -105z" />
<glyph unicode="&#xd9;" horiz-adv-x="1460" d="M868 1821q0 55 45 114l277 363q61 84 161 84q57 0 97.5 -29t40.5 -72q0 -31 -23 -63l-323 -453q-53 -74 -136 -73q-55 0 -97 36t-42 93zM111 449q0 74 18 155l152 719q20 92 88 145q59 49 131 50q59 0 98 -35t39 -99q0 -20 -6 -45l-160 -751q-6 -29 -6 -58 q0 -102 82 -165q74 -57 184 -58q117 0 209 66q102 72 129 198l160 752q18 92 86 147q59 47 133 48q59 0 100 -35t41 -101q0 -20 -6 -43l-170 -800q-55 -260 -293 -418q-215 -145 -477 -146q-227 0 -373 117q-159 128 -159 357z" />
<glyph unicode="&#xda;" horiz-adv-x="1460" d="M915 1788q0 55 29 109.5t76 72.5l346 137q49 20 92 21q59 0 93 -37t34 -90q0 -113 -105 -148l-452 -155q-23 -6 -39 -7q-74 1 -74 97zM111 449q0 74 18 155l152 719q20 92 88 145q59 49 131 50q59 0 98 -35t39 -99q0 -20 -6 -45l-160 -751q-6 -29 -6 -58q0 -102 82 -165 q74 -57 184 -58q117 0 209 66q102 72 129 198l160 752q18 92 86 147q59 47 133 48q59 0 100 -35t41 -101q0 -20 -6 -43l-170 -800q-55 -260 -293 -418q-215 -145 -477 -146q-227 0 -373 117q-159 128 -159 357z" />
<glyph unicode="&#xdb;" horiz-adv-x="1460" d="M532 1724q-31 37 0 80l518 707q63 90 139 90q98 0 138 -123l200 -631q4 -14 4 -28q0 -49 -46 -87t-101 -38q-82 0 -109 86l-143 483l-377 -500q-53 -72 -135 -71q-57 -1 -88 32zM111 449q0 74 18 155l152 719q20 92 88 145q59 49 131 50q59 0 98 -35t39 -99q0 -20 -6 -45 l-160 -751q-6 -29 -6 -58q0 -102 82 -165q74 -57 184 -58q117 0 209 66q102 72 129 198l160 752q18 92 86 147q59 47 133 48q59 0 100 -35t41 -101q0 -20 -6 -43l-170 -800q-55 -260 -293 -418q-215 -145 -477 -146q-227 0 -373 117q-159 128 -159 357z" />
<glyph unicode="&#xdc;" horiz-adv-x="1460" d="M631 1818q0 78 56.5 142.5t146.5 64.5q131 0 131 -133q0 -76 -53 -135q-57 -66 -150 -66q-131 0 -131 127zM1125 1820q0 72 53 130.5t141 58.5q131 0 131 -121q0 -72 -51 -129q-59 -63 -145 -64q-129 0 -129 125zM111 449q0 74 18 155l152 719q20 92 88 145q59 49 131 50 q59 0 98 -35t39 -99q0 -20 -6 -45l-160 -751q-6 -29 -6 -58q0 -102 82 -165q74 -57 184 -58q117 0 209 66q102 72 129 198l160 752q18 92 86 147q59 47 133 48q59 0 100 -35t41 -101q0 -20 -6 -43l-170 -800q-55 -260 -293 -418q-215 -145 -477 -146q-227 0 -373 117 q-159 128 -159 357z" />
<glyph unicode="&#xdd;" horiz-adv-x="1312" d="M1278 1788q0 55 29 109.5t76 72.5l346 137q49 20 92 21q59 0 93 -37t34 -90q0 -113 -105 -148l-452 -155q-23 -6 -39 -7q-74 1 -74 97zM281 1309q0 76 71.5 142.5t151.5 66.5q84 0 127 -86l188 -381l326 368q90 104 192 105q63 0 106.5 -41t43.5 -101q0 -66 -57 -127 l-521 -553l-118 -559q-14 -68 -69.5 -105.5t-121.5 -37.5q-61 0 -100 31q-45 35 -45 94q0 16 4 35l116 542l-280 547q-14 29 -14 60z" />
<glyph unicode="&#xe0;" horiz-adv-x="1277" d="M876 1430q0 55 45 114l277 363q61 84 161 84q57 0 97.5 -29t40.5 -72q0 -31 -23 -63l-323 -453q-53 -74 -136 -73q-55 0 -97 36t-42 93zM104 418q0 281 181 508q199 252 493 252q59 0 133 -39q68 -35 109 -80q66 119 184 119q53 0 90 -33t37 -94q0 -20 -6 -43l-195 -924 q-12 -53 -66 -82t-120 -29q-68 0 -110 29q-35 23 -35 61q0 9 2 19q-150 -106 -297 -107q-197 0 -303 131q-97 119 -97 312zM436 510q0 -90 45 -145q51 -63 146 -64q125 0 211 115q80 104 80 231q0 86 -44 139q-49 59 -139 60q-133 0 -221 -111q-78 -98 -78 -225z" />
<glyph unicode="&#xe1;" horiz-adv-x="1277" d="M923 1397q0 55 29 109.5t76 72.5l346 137q49 20 92 21q59 0 93 -37t34 -90q0 -113 -105 -148l-452 -155q-23 -6 -39 -7q-74 1 -74 97zM104 418q0 281 181 508q199 252 493 252q59 0 133 -39q68 -35 109 -80q66 119 184 119q53 0 90 -33t37 -94q0 -20 -6 -43l-195 -924 q-12 -53 -66 -82t-120 -29q-68 0 -110 29q-35 23 -35 61q0 9 2 19q-150 -106 -297 -107q-197 0 -303 131q-97 119 -97 312zM436 510q0 -90 45 -145q51 -63 146 -64q125 0 211 115q80 104 80 231q0 86 -44 139q-49 59 -139 60q-133 0 -221 -111q-78 -98 -78 -225z" />
<glyph unicode="&#xe2;" horiz-adv-x="1277" d="M539 1333q-31 37 0 80l518 707q63 90 139 90q98 0 138 -123l200 -631q4 -14 4 -28q0 -49 -46 -87t-101 -38q-82 0 -109 86l-143 483l-377 -500q-53 -72 -135 -71q-57 -1 -88 32zM104 418q0 281 181 508q199 252 493 252q59 0 133 -39q68 -35 109 -80q66 119 184 119 q53 0 90 -33t37 -94q0 -20 -6 -43l-195 -924q-12 -53 -66 -82t-120 -29q-68 0 -110 29q-35 23 -35 61q0 9 2 19q-150 -106 -297 -107q-197 0 -303 131q-97 119 -97 312zM436 510q0 -90 45 -145q51 -63 146 -64q125 0 211 115q80 104 80 231q0 86 -44 139q-49 59 -139 60 q-133 0 -221 -111q-78 -98 -78 -225z" />
<glyph unicode="&#xe3;" horiz-adv-x="1277" d="M490 1403q0 129 119.5 234.5t248.5 105.5q72 0 235 -76t214 -76q41 0 131 60.5t119 60.5q70 0 69 -76q0 -119 -109.5 -227.5t-228.5 -108.5q-102 0 -259.5 75t-209.5 75q-49 0 -144 -67.5t-124 -67.5q-61 0 -61 88zM104 418q0 281 181 508q199 252 493 252q59 0 133 -39 q68 -35 109 -80q66 119 184 119q53 0 90 -33t37 -94q0 -20 -6 -43l-195 -924q-12 -53 -66 -82t-120 -29q-68 0 -110 29q-35 23 -35 61q0 9 2 19q-150 -106 -297 -107q-197 0 -303 131q-97 119 -97 312zM436 510q0 -90 45 -145q51 -63 146 -64q125 0 211 115q80 104 80 231 q0 86 -44 139q-49 59 -139 60q-133 0 -221 -111q-78 -98 -78 -225z" />
<glyph unicode="&#xe4;" horiz-adv-x="1277" d="M637 1427q0 78 56.5 142.5t146.5 64.5q131 0 131 -133q0 -76 -53 -135q-57 -66 -150 -66q-131 0 -131 127zM1131 1429q0 72 53 130.5t141 58.5q131 0 131 -121q0 -72 -51 -129q-59 -63 -145 -64q-129 0 -129 125zM104 418q0 281 181 508q199 252 493 252q59 0 133 -39 q68 -35 109 -80q66 119 184 119q53 0 90 -33t37 -94q0 -20 -6 -43l-195 -924q-12 -53 -66 -82t-120 -29q-68 0 -110 29q-35 23 -35 61q0 9 2 19q-150 -106 -297 -107q-197 0 -303 131q-97 119 -97 312zM436 510q0 -90 45 -145q51 -63 146 -64q125 0 211 115q80 104 80 231 q0 86 -44 139q-49 59 -139 60q-133 0 -221 -111q-78 -98 -78 -225z" />
<glyph unicode="&#xe5;" horiz-adv-x="1277" d="M709 1605q0 180 119 324q131 160 329 160q160 0 246 -88q74 -76 74 -203q0 -182 -131 -334q-143 -164 -342 -164q-145 0 -226 90q-69 84 -69 215zM914 1638q0 -123 123 -123q100 0 161 66q55 59 56 137q0 57 -33 96q-39 41 -105 41q-86 0 -144 -69.5t-58 -147.5zM104 418 q0 281 181 508q199 252 493 252q59 0 133 -39q68 -35 109 -80q66 119 184 119q53 0 90 -33t37 -94q0 -20 -6 -43l-195 -924q-12 -53 -66 -82t-120 -29q-68 0 -110 29q-35 23 -35 61q0 9 2 19q-150 -106 -297 -107q-197 0 -303 131q-97 119 -97 312zM436 510q0 -90 45 -145 q51 -63 146 -64q125 0 211 115q80 104 80 231q0 86 -44 139q-49 59 -139 60q-133 0 -221 -111q-78 -98 -78 -225z" />
<glyph unicode="&#xe8;" horiz-adv-x="1265" d="M711 1430q0 55 45 114l277 363q61 84 161 84q57 0 97.5 -29t40.5 -72q0 -31 -23 -63l-323 -453q-53 -74 -136 -73q-55 0 -97 36t-42 93zM109 449q0 63 14 131q59 281 276 446q195 150 426 150q188 0 310 -103q131 -113 131 -307q0 -66 -15 -137q-33 -154 -135 -154h-649 q12 -209 219 -209q74 0 154 29q72 25 108 57q57 49 113 49q47 0 75.5 -32.5t28.5 -81.5q0 -119 -147 -205q-184 -106 -383 -107q-221 0 -371 125q-155 134 -155 349zM510 711h432q-4 92 -55 145q-47 47 -119 47t-139 -49q-74 -51 -119 -143z" />
<glyph unicode="&#xe9;" horiz-adv-x="1265" d="M758 1397q0 55 29 109.5t76 72.5l346 137q49 20 92 21q59 0 93 -37t34 -90q0 -113 -105 -148l-452 -155q-23 -6 -39 -7q-74 1 -74 97zM109 449q0 63 14 131q59 281 276 446q195 150 426 150q188 0 310 -103q131 -113 131 -307q0 -66 -15 -137q-33 -154 -135 -154h-649 q12 -209 219 -209q74 0 154 29q72 25 108 57q57 49 113 49q47 0 75.5 -32.5t28.5 -81.5q0 -119 -147 -205q-184 -106 -383 -107q-221 0 -371 125q-155 134 -155 349zM510 711h432q-4 92 -55 145q-47 47 -119 47t-139 -49q-74 -51 -119 -143z" />
<glyph unicode="&#xea;" horiz-adv-x="1265" d="M373 1333q-31 37 0 80l518 707q63 90 139 90q98 0 138 -123l200 -631q4 -14 4 -28q0 -49 -46 -87t-101 -38q-82 0 -109 86l-143 483l-377 -500q-53 -72 -135 -71q-57 -1 -88 32zM109 449q0 63 14 131q59 281 276 446q195 150 426 150q188 0 310 -103q131 -113 131 -307 q0 -66 -15 -137q-33 -154 -135 -154h-649q12 -209 219 -209q74 0 154 29q72 25 108 57q57 49 113 49q47 0 75.5 -32.5t28.5 -81.5q0 -119 -147 -205q-184 -106 -383 -107q-221 0 -371 125q-155 134 -155 349zM510 711h432q-4 92 -55 145q-47 47 -119 47t-139 -49 q-74 -51 -119 -143z" />
<glyph unicode="&#xeb;" horiz-adv-x="1265" d="M471 1427q0 78 56.5 142.5t146.5 64.5q131 0 131 -133q0 -76 -53 -135q-57 -66 -150 -66q-131 0 -131 127zM965 1429q0 72 53 130.5t141 58.5q131 0 131 -121q0 -72 -51 -129q-59 -63 -145 -64q-129 0 -129 125zM109 449q0 63 14 131q59 281 276 446q195 150 426 150 q188 0 310 -103q131 -113 131 -307q0 -66 -15 -137q-33 -154 -135 -154h-649q12 -209 219 -209q74 0 154 29q72 25 108 57q57 49 113 49q47 0 75.5 -32.5t28.5 -81.5q0 -119 -147 -205q-184 -106 -383 -107q-221 0 -371 125q-155 134 -155 349zM510 711h432q-4 92 -55 145 q-47 47 -119 47t-139 -49q-74 -51 -119 -143z" />
<glyph unicode="&#xec;" horiz-adv-x="536" d="M410 1772q0 55 45 114l277 363q61 84 161 84q57 0 97.5 -29t40.5 -72q0 -31 -23 -63l-323 -453q-53 -74 -104717D2A54" />
<glyph unicode="&#xed;" horiz-adv-x="536" d="M457 1739q0 55 29 109.5t76 72.5l346 137q49 20 92 21q59 0 93 -37t34 -90q0 -113 -105 -148l-452 -155q-20F5CB4BA98" />
<glyph unicode="&#xee;" horiz-adv-x="536" d="M72 1675q-31 37 0 80l518 707q63 90 139 90q98 0 138 -123l200 -631q4 -14 4 -28q0 -49 -46 -87t-101 -38q0662D8CA8C" />
<glyph unicode="&#xef;" horiz-adv-x="536" d="M170 1769q0 78 56.5 142.5t146.5 64.5q131 0 131 -133q0 -76 -53 -135q-57 -66 -150 -66q-131 0 -131 127z0F94CB7A2D" />
<glyph unicode="&#xf1;" horiz-adv-x="1177" d="M246 1403q0 129 119.5 234.5t248.5 105.5q72 0 235 -76t214 -76q41 0 131 60.5t119 60.5q70 0 69 -76q0 -10286D43A29" />
<glyph unicode="&#xf2;" horiz-adv-x="1255" d="M702 1430q0 55 45 114l277 363q61 84 161 84q57 0 97.5 -29t40.5 -72q0 -31 -23 -63l-323 -453q-53 -74 -136 -73q-55 0 -97 36t-42 93zM106 422q0 281 187 506q209 250 524 250q207 0 322 -142q104 -129 104 -329q0 -279 -184 -492q-205 -240 -537 -240q-205 0 -315 134 q-101 120 -101 313zM442 502q0 -197 166 -197q133 0 226 109q84 98 84 219q0 90 -52 145q-57 61 -166 62q-109 0 -186 -113q-72 -102 -72 -225z" />
<glyph unicode="&#xf3;" horiz-adv-x="1255" d="M749 1397q0 55 29 109.5t76 72.5l346 137q49 20 92 21q59 0 93 -37t34 -90q0 -113 -105 -148l-452 -155q-23 -6 -39 -7q-74 1 -74 97zM106 422q0 281 187 506q209 250 524 250q207 0 322 -142q104 -129 104 -329q0 -279 -184 -492q-205 -240 -537 -240q-205 0 -315 134 q-101 120 -101 313zM442 502q0 -197 166 -197q133 0 226 109q84 98 84 219q0 90 -52 145q-57 61 -166 62q-109 0 -186 -113q-72 -102 -72 -225z" />
<glyph unicode="&#xf4;" horiz-adv-x="1255" d="M365 1333q-31 37 0 80l518 707q63 90 139 90q98 0 138 -123l200 -631q4 -14 4 -28q0 -49 -46 -87t-101 -38q-82 0 -109 86l-143 483l-377 -500q-53 -72 -135 -71q-57 -1 -88 32zM106 422q0 281 187 506q209 250 524 250q207 0 322 -142q104 -129 104 -329 q0 -279 -184 -492q-205 -240 -537 -240q-205 0 -315 134q-101 120 -101 313zM442 502q0 -197 166 -197q133 0 226 109q84 98 84 219q0 90 -52 145q-57 61 -166 62q-109 0 -186 -113q-72 -102 -72 -225z" />
<glyph unicode="&#xf5;" horiz-adv-x="1255" d="M316 1403q0 129 119.5 234.5t248.5 105.5q72 0 235 -76t214 -76q41 0 131 60.5t119 60.5q70 0 69 -76q0 -119 -109.5 -227.5t-228.5 -108.5q-102 0 -259.5 75t-209.5 75q-49 0 -144 -67.5t-124 -67.5q-61 0 -61 88zM106 422q0 281 187 506q209 250 524 250 q207 0 322 -142q104 -129 104 -329q0 -279 -184 -492q-205 -240 -537 -240q-205 0 -315 134q-101 120 -101 313zM442 502q0 -197 166 -197q133 0 226 109q84 98 84 219q0 90 -52 145q-57 61 -166 62q-109 0 -186 -113q-72 -102 -72 -225z" />
<glyph unicode="&#xf6;" horiz-adv-x="1255" d="M463 1427q0 78 56.5 142.5t146.5 64.5q131 0 131 -133q0 -76 -53 -135q-57 -66 -150 -66q-131 0 -131 127zM957 1429q0 72 53 130.5t141 58.5q131 0 131 -121q0 -72 -51 -129q-59 -63 -145 -64q-129 0 -129 125zM106 422q0 281 187 506q209 250 524 250q207 0 322 -142 q104 -129 104 -329q0 -279 -184 -492q-205 -240 -537 -240q-205 0 -315 134q-101 120 -101 313zM442 502q0 -197 166 -197q133 0 226 109q84 98 84 219q0 90 -52 145q-57 61 -166 62q-109 0 -186 -113q-72 -102 -72 -225z" />
<glyph unicode="&#xf9;" horiz-adv-x="1175" d="M635 1430q0 55 45 114l277 363q61 84 161 84q57 0 97.5 -29t40.5 -72q0 -31 -23 -63l-323 -453q-53 -74 -136 -73q-55 0 -97 36t-42 93zM80 322q0 59 14 122l113 529q16 78 74 123q53 39 114 39q55 0 92 -32t37 -89q0 -20 -4 -41l-104 -494q-6 -23 -6 -43 q0 -68 45 -104.5t110 -36.5q74 0 136.5 48t80.5 136l103 477q18 84 77.5 131.5t127.5 47.5q57 0 96 -35t39 -99q0 -20 -6 -45l-115 -544q-51 -238 -311 -365q-159 -77 -308 -77q-83 0 -163 24q-242 72 -242 328z" />
<glyph unicode="&#xfa;" horiz-adv-x="1175" d="M682 1397q0 55 29 109.5t76 72.5l346 137q49 20 92 21q59 0 93 -37t34 -90q0 -113 -105 -148l-452 -155q-23 -6 -39 -7q-74 1 -74 97zM80 322q0 59 14 122l113 529q16 78 74 123q53 39 114 39q55 0 92 -32t37 -89q0 -20 -4 -41l-104 -494q-6 -23 -6 -43q0 -68 45 -104.5 t110 -36.5q74 0 136.5 48t80.5 136l103 477q18 84 77.5 131.5t127.5 47.5q57 0 96 -35t39 -99q0 -20 -6 -45l-115 -544q-51 -238 -311 -365q-159 -77 -308 -77q-83 0 -163 24q-242 72 -242 328z" />
<glyph unicode="&#xfb;" horiz-adv-x="1175" d="M299 1333q-31 37 0 80l518 707q63 90 139 90q98 0 138 -123l200 -631q4 -14 4 -28q0 -49 -46 -87t-101 -38q-82 0 -109 86l-143 483l-377 -500q-53 -72 -135 -71q-57 -1 -88 32zM80 322q0 59 14 122l113 529q16 78 74 123q53 39 114 39q55 0 92 -32t37 -89q0 -20 -4 -41 l-104 -494q-6 -23 -6 -43q0 -68 45 -104.5t110 -36.5q74 0 136.5 48t80.5 136l103 477q18 84 77.5 131.5t127.5 47.5q57 0 96 -35t39 -99q0 -20 -6 -45l-115 -544q-51 -238 -311 -365q-159 -77 -308 -77q-83 0 -163 24q-242 72 -242 328z" />
<glyph unicode="&#xfc;" horiz-adv-x="1175" d="M397 1427q0 78 56.5 142.5t146.5 64.5q131 0 131 -133q0 -76 -53 -135q-57 -66 -150 -66q-131 0 -131 127zM891 1429q0 72 53 130.5t141 58.5q131 0 131 -121q0 -72 -51 -129q-59 -63 -145 -64q-129 0 -129 125zM80 322q0 59 14 122l113 529q16 78 74 123q53 39 114 39 q55 0 92 -32t37 -89q0 -20 -4 -41l-104 -494q-6 -23 -6 -43q0 -68 45 -104.5t110 -36.5q74 0 136.5 48t80.5 136l103 477q18 84 77.5 131.5t127.5 47.5q57 0 96 -35t39 -99q0 -20 -6 -45l-115 -544q-51 -238 -311 -365q-159 -77 -308 -77q-83 0 -163 24q-242 72 -242 328z " />
<glyph unicode="&#xfd;" horiz-adv-x="1150" d="M694 1397q0 55 29 109.5t76 72.5l346 137q49 20 92 21q59 0 93 -37t34 -90q0 -113 -105 -148l-452 -155q-23 -6 -39 -7q-74 1 -74 97zM106 -358q0 43 25 86l217 358q-61 324 -139 776q-6 33 -6 62q0 98 59 157q53 55 125 56q127 0 145 -140l70 -497l295 479 q96 158 223 158q109 0 109 -117q0 -76 -62 -174l-743 -1190q-88 -139 -195 -139q-51 0 -87 36t-36 89z" />
<glyph unicode="&#xff;" horiz-adv-x="1150" d="M408 1427q0 78 56.5 142.5t146.5 64.5q131 0 131 -133q0 -76 -53 -135q-57 -66 -150 -66q-131 0 -131 127zM902 1429q0 72 53 130.5t141 58.5q131 0 131 -121q0 -72 -51 -129q-59 -63 -145 -64q-129 0 -129 125zM106 -358q0 43 25 86l217 358q-61 324 -139 776 q-6 33 -6 62q0 98 59 157q53 55 125 56q127 0 145 -140l70 -497l295 479q96 158 223 158q109 0 109 -117q0 -76 -62 -174l-743 -1190q-88 -139 -195 -139q-51 0 -87 36t-36 89z" />
<glyph unicode="&#x152;" horiz-adv-x="2617" d="M1653 115l266 1255q14 66 64.5 108t115.5 42h553q123 0 123 -136q0 -74 -45 -135t-117 -61h-399l-64 -293h369q102 0 102 -117q0 -74 -44 -135t-111 -61h-381l-58 -269h369q133 0 133 -125q0 -70 -45 -129t-106 -59h-633q-37 0 -69 38q-25 30 -25 61q0 8 2 16zM141 571 q0 371 252 670q276 328 684 328q295 0 453 -176q141 -160 141 -416q0 -371 -252 -672q-276 -332 -680 -332q-295 0 -454 179q-144 161 -144 419zM522 545q47 -242 287 -242q231 0 381 242q110 175 109 349q0 51 -9 101q-41 242 -278 242q-242 0 -391 -242 q-108 -173 -109 -345q0 -52 10 -105z" />
<glyph unicode="&#x153;" horiz-adv-x="2521" d="M1364 449q0 63 14 131q59 281 276 446q195 150 426 150q188 0 310 -103q131 -113 131 -307q0 -66 -15 -137q-33 -154 -135 -154h-649q12 -209 219 -209q74 0 154 29q72 25 108 57q57 49 113 49q47 0 75.5 -32.5t28.5 -81.5q0 -119 -147 -205q-184 -106 -383 -107 q-221 0 -371 125q-155 134 -155 349zM1765 711h432q-4 92 -55 145q-47 47 -119 47t-139 -49q-74 -51 -119 -143zM106 422q0 281 187 506q209 250 524 250q207 0 322 -142q104 -129 104 -329q0 -279 -184 -492q-205 -240 -537 -240q-205 0 -315 134q-101 120 -101 313z M442 502q0 -197 166 -197q133 0 226 109q84 98 84 219q0 90 -52 145q-57 61 -166 62q-109 0 -186 -113q-72 -102 -72 -225z" />
<glyph unicode="&#x178;" horiz-adv-x="1312" d="M991 1818q0 78 56.5 142.5t146.5 64.5q131 0 131 -133q0 -76 -53 -135q-57 -66 -150 -66q-131 0 -131 127zM1485 1820q0 72 53 130.5t141 58.5q131 0 131 -121q0 -72 -51 -129q-59 -63 -145 -64q-129 0 -129 125zM281 1309q0 76 71.5 142.5t151.5 66.5q84 0 127 -86 l188 -381l326 368q90 104 192 105q63 0 106.5 -41t43.5 -101q0 -66 -57 -127l-521 -553l-118 -559q-14 -68 -69.5 -105.5t-121.5 -37.5q-61 0 -100 31q-45 35 -45 94q0 16 4 35l116 542l-280 547q-14 29 -14 60z" />
<glyph unicode="&#x2c6;" horiz-adv-x="1198" d="M172 698q-31 37 0 80l518 707q63 90 139 90q98 0 138 -123l200 -631q4 -14 4 -28q0 -49 -46 -87t-101 -38q-82 0 -109 86l-143 483l-377 -500q-53 -72 -135 -71q-57 -1 -88 32z" />
<glyph unicode="&#x2dc;" horiz-adv-x="1288" d="M111 498q0 129 119.5 234.5t248.5 105.5q72 0 235 -76t214 -76q41 0 131 60.5t119 60.5q70 0 69 -76q0 -119 -109.5 -227.5t-228.5 -108.5q-102 0 -259.5 75t-209.5 75q-49 0 -144 -67.5t-124 -67.5q-61 0 -61 88z" />
<glyph unicode="&#x3bc;" horiz-adv-x="1179" d="M-70 -352q0 23 4 47l271 1266q16 78 82 126q59 47 129 48q125 0 125 -129q0 -25 -6 -54l-113 -526q-4 -23 -4 -43q0 -113 129 -113q76 0 147.5 48.5t87.5 123.5l109 512q20 88 75.5 135.5t120.5 47.5q59 0 99.5 -37t40.5 -101q0 -23 -4 -45l-179 -821q-14 -74 -73.5 -117 t-122.5 -43q-121 0 -121 111q0 20 4 41q-102 -135 -305 -135q-47 0 -88 10l-57 -270q-23 -100 -91 -160q-61 -51 -133 -51q-55 0 -91 34t-36 95z" />
<glyph unicode="&#x2000;" horiz-adv-x="1300" />
<glyph unicode="&#x2001;" horiz-adv-x="2600" />
<glyph unicode="&#x2002;" horiz-adv-x="1300" />
<glyph unicode="&#x2003;" horiz-adv-x="2600" />
<glyph unicode="&#x2004;" horiz-adv-x="866" />
<glyph unicode="&#x2005;" horiz-adv-x="649" />
<glyph unicode="&#x2006;" horiz-adv-x="432" />
<glyph unicode="&#x2007;" horiz-adv-x="432" />
<glyph unicode="&#x2008;" horiz-adv-x="323" />
<glyph unicode="&#x2009;" horiz-adv-x="520" />
<glyph unicode="&#x200a;" horiz-adv-x="143" />
<glyph unicode="&#x2010;" horiz-adv-x="989" d="M143 563q0 70 49.5 130.5t124.5 60.5h517q111 0 110 -115q0 -70 -47 -125q-51 -61 -127 -61h-518q-109 -1 -109 110z" />
<glyph unicode="&#x2011;" horiz-adv-x="989" d="M143 563q0 70 49.5 130.5t124.5 60.5h517q111 0 110 -115q0 -70 -47 -125q-51 -61 -127 -61h-518q-109 -1 -109 110z" />
<glyph unicode="&#x2012;" horiz-adv-x="989" d="M143 563q0 70 49.5 130.5t124.5 60.5h517q111 0 110 -115q0 -70 -47 -125q-51 -61 -127 -61h-518q-109 -1 -109 110z" />
<glyph unicode="&#x2013;" horiz-adv-x="1595" d="M123 563q0 70 49 130.5t125 60.5h1128q111 0 111 -115q0 -70 -47 -125q-51 -61 -127 -61h-1129q-110 -1 -110 110z" />
<glyph unicode="&#x2014;" horiz-adv-x="1929" d="M123 563q0 70 49 130.5t125 60.5h1460q111 0 111 -115q0 -70 -45 -125q-51 -61 -129 -61h-1461q-110 -1 -110 110z" />
<glyph unicode="&#x2018;" horiz-adv-x="724" d="M213 983q0 68 55 139l250 314q84 104 189 104q55 0 92 -30.5t37 -79.5q0 -53 -48 -109l-292 -369q-74 -92 -160 -92q-53 0 -88 35t-35 88z" />
<glyph unicode="&#x2019;" horiz-adv-x="724" d="M213 983q0 68 55 139l250 314q84 104 189 104q55 0 92 -30.5t37 -79.5q0 -53 -48 -109l-292 -369q-74 -92 -160 -92q-53 0 -88 35t-35 88z" />
<glyph unicode="&#x201a;" horiz-adv-x="653" d="M-115 -213q0 63 56 133l249 318q82 104 191 104q55 0 92 -30.5t37 -80.5q0 -53 -45 -112l-293 -363q-70 -86 -160 -86q-53 0 -90 33t-37 84z" />
<glyph unicode="&#x201c;" horiz-adv-x="890" d="M207 952q0 16 2 33l82 385q14 66 63 101.5t105 35.5q119 0 119 -104q0 -16 -5 -33l-81 -385q-14 -66 -62.5 -101.5t-105.5 -35.5q-117 0 -117 104zM625 952q0 16 4 33l82 385q12 66 65 103q45 35 103 34q115 0 114 -104q0 -14 -4 -33l-82 -385q-12 -66 -65 -102 q-45 -35 -103 -35q-114 0 -114 104z" />
<glyph unicode="&#x201d;" horiz-adv-x="890" d="M207 952q0 16 2 33l82 385q14 66 63 101.5t105 35.5q119 0 119 -104q0 -16 -5 -33l-81 -385q-14 -66 -62.5 -101.5t-105.5 -35.5q-117 0 -117 104zM625 952q0 16 4 33l82 385q12 66 65 103q45 35 103 34q115 0 114 -104q0 -14 -4 -33l-82 -385q-12 -66 -65 -102 q-45 -35 -103 -35q-114 0 -114 104z" />
<glyph unicode="&#x201e;" horiz-adv-x="1198" d="M-119 -213q0 63 56 133l247 318q84 104 191 104q57 0 94 -30.5t37 -80.5q0 -53 -47 -112l-293 -363q-70 -86 -160 -86q-53 0 -89 33t-36 84zM430 -213q0 63 55 133l248 318q84 104 191 104q57 0 94 -30.5t37 -80.5q0 -53 -47 -112l-293 -363q-70 -86 -160 -86 q-53 0 -89 33t-36 84z" />
<glyph unicode="&#x2022;" horiz-adv-x="1458" d="M170 729q0 295 211 533q229 258 575 258q254 0 390 -146q125 -133 124 -344q0 -295 -210 -530q-229 -260 -576 -260q-254 0 -389 145q-125 133 -125 344z" />
<glyph unicode="&#x2026;" horiz-adv-x="1673" d="M37 147q0 88 63 156q72 76 183 76q145 0 145 -146q0 -88 -61 -157q-66 -78 -166 -78q-80 0 -122 43t-42 106zM584 147q0 88 65 156q72 76 180 76q147 0 148 -146q0 -88 -62 -157q-66 -78 -165 -78q-80 0 -123 43t-43 106zM1133 147q0 88 65 156q72 76 180 76 q145 0 146 -146q0 -88 -60 -157q-68 -78 -166 -78q-82 0 -123.5 43t-41.5 106z" />
<glyph unicode="&#x202f;" horiz-adv-x="520" />
<glyph unicode="&#x2039;" horiz-adv-x="1357" d="M127 588q0 115 201 198l825 353q49 20 94 20q57 0 92 -33.5t35 -81.5q0 -106 -139 -159l-694 -262l577 -289q90 -43 90 -123q0 -53 -44 -94t-109 -41q-51 0 -105 26l-708 351q-115 55 -115 135z" />
<glyph unicode="&#x203a;" horiz-adv-x="1368" d="M37 160q0 102 137 157l711 287q-172 88 -559 264q-109 51 -109 142q0 57 48 101t122 44q59 0 123 -33l709 -368q88 -45 88 -125q0 -113 -152 -176l-919 -383q-41 -18 -78 -19q-55 0 -88 32t-33 77z" />
<glyph unicode="&#x205f;" horiz-adv-x="649" />
<glyph unicode="&#x2122;" horiz-adv-x="1611" d="M319 1491q0 37 25 68.5t66 31.5h374q76 0 76 -61q0 -35 -24.5 -65.5t-59.5 -30.5h-117l-108 -516q-18 -84 -102 -84q-33 0 -54.5 18t-15.5 49l115 533h-125q-50 0 -50 57zM725 891q0 10 4 24q74 197 223 594q37 98 138 99q84 0 92 -82l39 -367l202 367q47 84 136 84 q92 0 88 -101q-10 -195 -33 -596q-4 -37 -33 -59.5t-63 -22.5q-72 0 -70 70l14 381l-196 -381q-35 -70 -107 -70q-70 0 -78 70l-45 373l-125 -348q-35 -94 -114 -95q-72 1 -72 60z" />
<glyph unicode="&#xe000;" horiz-adv-x="1140" d="M0 1140h1140v-1140h-1140v1140z" />
<glyph unicode="&#xfb01;" horiz-adv-x="1482" d="M1012 131q0 25 6 51l159 756q18 86 80 139q55 45 121 45q123 0 123 -131q0 -25 -6 -53l-160 -750q-18 -90 -76.5 -139t-122.5 -49q-53 0 -88.5 34t-35.5 97zM1227 1303q0 82 67.5 149.5t175.5 67.5q147 0 148 -140q0 -84 -60 -149q-66 -72 -163 -72q-82 0 -125 41.5 t-43 102.5zM207 952q0 70 45 123q51 61 129 62h76l20 94q29 145 146.5 241.5t287.5 96.5q68 0 121 -46t53 -110q0 -14 -2 -29q-14 -63 -57 -81q-29 -12 -94 -13h-6q-51 0 -76 -6q-35 -8 -47 -45l-21 -102q41 0 136 -2q117 0 116 -115q0 -68 -45 -123q-51 -59 -129 -61h-139 l-146 -682q-16 -72 -71 -113t-119 -41q-127 0 -127 123q0 23 4 47l141 666q-23 -2 -75 -2q-121 -1 -121 118z" />
<glyph unicode="&#xfb02;" horiz-adv-x="1439" d="M979 131q0 20 4 43l246 1159q20 90 82 142q55 45 122 45q55 0 95.5 -35t40.5 -94q0 -18 -7 -39l-249 -1178q-18 -84 -74.5 -130t-122.5 -46q-57 0 -97 36t-40 97zM207 952q0 70 45 123q51 61 129 62h76l20 94q29 145 146.5 241.5t287.5 96.5q68 0 121 -46t53 -110 q0 -14 -2 -29q-14 -63 -57 -81q-29 -12 -94 -13h-6q-51 0 -76 -6q-35 -8 -47 -45l-21 -102q41 0 136 -2q117 0 116 -115q0 -68 -45 -123q-51 -59 -129 -61h-139l-146 -682q-16 -72 -71 -113t-119 -41q-127 0 -127 123q0 23 4 47l141 666q-23 -2 -75 -2q-121 -1 -121 118z " />
<glyph unicode="&#xfb03;" horiz-adv-x="2428" d="M1958 131q0 25 6 51l159 756q18 86 80 139q55 45 121 45q123 0 123 -131q0 -25 -6 -53l-160 -750q-18 -90 -76.5 -139t-122.5 -49q-53 0 -88.5 34t-35.5 97zM2173 1303q0 82 67.5 149.5t175.5 67.5q147 0 148 -140q0 -84 -60 -149q-66 -72 -163 -72q-82 0 -125 41.5 t-43 102.5zM1153 952q0 70 45 123q51 61 129 62h76l20 94q29 145 146.5 241.5t287.5 96.5q68 0 121 -46t53 -110q0 -14 -2 -29q-14 -63 -57 -81q-29 -12 -94 -13h-6q-51 0 -76 -6q-35 -8 -47 -45l-21 -102q41 0 136 -2q117 0 116 -115q0 -68 -45 -123q-51 -59 -129 -61h-139 l-146 -682q-16 -72 -71 -113t-119 -41q-127 0 -127 123q0 23 4 47l141 666q-23 -2 -75 -2q-121 -1 -121 118zM207 952q0 70 45 123q51 61 129 62h76l20 94q29 145 146.5 241.5t287.5 96.5q68 0 121 -46t53 -110q0 -14 -2 -29q-14 -63 -57 -81q-29 -12 -94 -13h-6 q-51 0 -76 -6q-35 -8 -47 -45l-21 -102q41 0 136 -2q117 0 116 -115q0 -68 -45 -123q-51 -59 -129 -61h-139l-146 -682q-16 -72 -71 -113t-119 -41q-127 0 -127 123q0 23 4 47l141 666q-23 -2 -75 -2q-121 -1 -121 118z" />
<glyph unicode="&#xfb04;" horiz-adv-x="2385" d="M1925 131q0 20 4 43l246 1159q20 90 82 142q55 45 122 45q55 0 95.5 -35t40.5 -94q0 -18 -7 -39l-249 -1178q-18 -84 -74.5 -130t-122.5 -46q-57 0 -97 36t-40 97zM1153 952q0 70 45 123q51 61 129 62h76l20 94q29 145 146.5 241.5t287.5 96.5q68 0 121 -46t53 -110 q0 -14 -2 -29q-14 -63 -57 -81q-29 -12 -94 -13h-6q-51 0 -76 -6q-35 -8 -47 -45l-21 -102q41 0 136 -2q117 0 116 -115q0 -68 -45 -123q-51 -59 -129 -61h-139l-146 -682q-16 -72 -71 -113t-119 -41q-127 0 -127 123q0 23 4 47l141 666q-23 -2 -75 -2q-121 -1 -121 118z M207 952q0 70 45 123q51 61 129 62h76l20 94q29 145 146.5 241.5t287.5 96.5q68 0 121 -46t53 -110q0 -14 -2 -29q-14 -63 -57 -81q-29 -12 -94 -13h-6q-51 0 -76 -6q-35 -8 -47 -45l-21 -102q41 0 136 -2q117 0 116 -115q0 -68 -45 -123q-51 -59 -129 -61h-139l-146 -682 q-16 -72 -71 -113t-119 -41q-127 0 -127 123q0 23 4 47l141 666q-23 -2 -75 -2q-121 -1 -121 118z" />
</font>
</defs>
</svg>
